<?xml version="1.0" standalone="no"?>
<!DOCTYPE svg PUBLIC "-//W3C//DTD SVG 1.1//EN" "http://www.w3.org/Graphics/SVG/1.1/DTD/svg11.dtd" >
<svg xmlns="http://www.w3.org/2000/svg" xmlns:xlink="http://www.w3.org/1999/xlink" version="1.1">
<metadata></metadata>
<defs>
<font id="human_sansregular" horiz-adv-x="1196" >
<font-face units-per-em="2048" ascent="1556" descent="-492" />
<missing-glyph horiz-adv-x="532" />
<glyph unicode="&#xfb01;" horiz-adv-x="1355" d="M61 883v141h205v172q0 141 86 225t250 84q102 0 164 -30v-150q-85 31 -150 31q-186 0 -186 -176v-156h342v-141h-342v-883h-164v883h-205zM977 1335q0 51 36 87t87 36t87 -36t36 -87t-36 -87t-87 -36t-87 36t-36 87zM1018 0v1024h164v-1024h-164z" />
<glyph unicode="&#xfb02;" horiz-adv-x="1312" d="M61 883v141h205v172q0 141 86 225t250 84q102 0 164 -30v-150q-85 31 -150 31q-186 0 -186 -176v-156h342v-141h-342v-883h-164v883h-205zM997 0v1495h162v-1495h-162z" />
<glyph horiz-adv-x="0" />
<glyph horiz-adv-x="682" />
<glyph unicode=" "  horiz-adv-x="532" />
<glyph unicode="&#x09;" horiz-adv-x="532" />
<glyph unicode="&#xa0;" horiz-adv-x="532" />
<glyph unicode="!" horiz-adv-x="516" d="M123 113q0 57 39 96t96 39t96 -39t39 -96t-39 -96.5t-96 -39.5t-96 39.5t-39 96.5zM172 1352h172l-16 -946h-140z" />
<glyph unicode="&#x22;" horiz-adv-x="784" d="M147 907v506h181l-54 -506h-127zM494 907v506h180l-53 -506h-127z" />
<glyph unicode="#" horiz-adv-x="1269" d="M20 383v125h275l59 346h-243v125h264l61 373h139l-61 -373h340l61 373h140l-62 -373h254v-125h-276l-58 -346h244v-125h-264l-64 -383h-139l64 383h-340l-64 -383h-139l63 383h-254zM434 508h340l60 346h-340z" />
<glyph unicode="$" horiz-adv-x="1103" d="M80 328q0 52 6 90h141q-4 -29 -4 -74q0 -62 61.5 -130.5t172.5 -92.5v510q-353 110 -353 346q0 165 96 268t257 125v135h180v-137q149 -27 245 -131.5t95 -261.5h-150q-6 206 -190 248v-488q198 -60 281 -151t83 -219q0 -147 -98 -255t-266 -135v-133h-180v133 q-171 25 -274 131t-103 222zM262 993q0 -65 44.5 -113.5t150.5 -88.5v434q-91 -18 -143 -76t-52 -156zM637 121q100 20 153.5 83t53.5 152q0 142 -207 219v-454z" />
<glyph unicode="%" horiz-adv-x="1765" d="M61 999q0 155 110 265t265 110q154 0 263.5 -110t109.5 -265t-109.5 -264.5t-263.5 -109.5q-155 0 -265 109.5t-110 264.5zM190 999q0 -101 72.5 -173t173.5 -72t173.5 72t72.5 173t-72.5 173.5t-173.5 72.5t-173.5 -72.5t-72.5 -173.5zM377 0l860 1352h156l-861 -1352 h-155zM956 354q0 155 110 265t265 110q154 0 263.5 -110t109.5 -265t-109.5 -264.5t-263.5 -109.5q-155 0 -265 109.5t-110 264.5zM1085 354q0 -101 72.5 -173t173.5 -72t173.5 72t72.5 173t-72.5 173.5t-173.5 72.5t-173.5 -72.5t-72.5 -173.5z" />
<glyph unicode="&#x26;" horiz-adv-x="1384" d="M102 467q0 142 76.5 259.5t200.5 178.5q-37 85 -37 223q0 117 83.5 201t201.5 84q117 0 199.5 -84t82.5 -201h-135q0 61 -43.5 104.5t-103.5 43.5q-61 0 -104.5 -43t-43.5 -105v-13v-16.5t0.5 -18t1.5 -21t3.5 -22t5.5 -25.5t7.5 -26.5t10.5 -28.5t14.5 -29t18.5 -31 l370 -569q29 69 29 139v268h305v-135h-166v-133q0 -148 -84 -272q8 -11 21.5 -32.5t17.5 -27.5h248v-135h-321l-60 90q-132 -110 -309 -110q-132 0 -245 65t-179 177t-66 245zM242 467q0 -144 103.5 -246t246.5 -102q131 0 231 90q-40 63 -172 266t-200 309 q-94 -42 -151.5 -128t-57.5 -189z" />
<glyph unicode="'" horiz-adv-x="438" d="M147 907v506h181l-54 -506h-127z" />
<glyph unicode="(" horiz-adv-x="653" d="M102 625q0 275 98.5 522.5t276.5 441.5l123 -112q-157 -170 -243.5 -389.5t-86.5 -462.5q0 -247 90 -470.5t252 -394.5l-123 -114q-184 196 -285.5 448t-101.5 531z" />
<glyph unicode=")" horiz-adv-x="653" d="M41 -240q162 171 252 394.5t90 470.5q0 243 -86.5 462.5t-243.5 389.5l123 112q178 -194 276.5 -441.5t98.5 -522.5q0 -279 -101.5 -531t-285.5 -448z" />
<glyph unicode="*" horiz-adv-x="1130" d="M88 1100l39 125l371 -115v385h135v-385l371 115l38 -125l-364 -121l223 -315l-106 -78l-228 309l-231 -309l-107 78l228 315z" />
<glyph unicode="+" d="M100 571v154h422v430h154v-430h420v-154h-420v-432h-154v432h-422z" />
<glyph unicode="," horiz-adv-x="503" d="M43 -158q164 52 203 138q-54 3 -91.5 41.5t-37.5 93.5t39.5 94t95.5 39q60 0 96.5 -38t42.5 -104q12 -138 -73.5 -237.5t-231.5 -132.5z" />
<glyph unicode="-" horiz-adv-x="1003" d="M164 451v170h676v-170h-676z" />
<glyph unicode="." horiz-adv-x="503" d="M117 115q0 55 39.5 94t95.5 39t95.5 -39t39.5 -94q0 -57 -39.5 -96t-95.5 -39t-95.5 39t-39.5 96z" />
<glyph unicode="/" horiz-adv-x="987" d="M33 -143l764 1638h157l-764 -1638h-157z" />
<glyph unicode="0" horiz-adv-x="1232" d="M113 676q0 351 117 523.5t386 172.5t386.5 -172.5t117.5 -523.5t-117.5 -523.5t-386.5 -172.5t-386 172.5t-117 523.5zM283 676q0 -281 73.5 -415t259.5 -134t260 134t74 415t-74 415t-260 134t-259.5 -134t-73.5 -415z" />
<glyph unicode="1" horiz-adv-x="743" d="M55 1139l336 213h164v-1352h-164v1161l-252 -155z" />
<glyph unicode="2" horiz-adv-x="1015" d="M61 971q27 182 149 291.5t318 109.5q203 0 314.5 -114.5t111.5 -292.5q0 -50 -8.5 -97t-31 -96t-45.5 -90t-68.5 -95t-82 -95t-104 -105.5t-117 -110t-137.5 -124.5q47 2 181 2h409v-154h-846v143q76 69 179.5 160.5t157.5 140t122.5 113.5t102 106t67 92.5t46 98 t12.5 98.5q0 119 -68.5 193t-196.5 74q-138 0 -222.5 -90t-98.5 -244z" />
<glyph unicode="3" horiz-adv-x="1153" d="M106 303l152 80q23 -122 93.5 -186t209.5 -64q144 0 220.5 68.5t76.5 187.5q0 116 -77 165.5t-234 49.5h-133v154h133q137 0 207 54t73 169q3 112 -60.5 175t-188.5 63q-232 0 -287 -207l-154 71q53 137 169.5 213t277.5 76q194 0 303.5 -103.5t109.5 -258.5 q0 -131 -76 -227.5t-178 -96.5v-4q129 0 207 -93t78 -224q0 -168 -130 -276.5t-341 -108.5q-176 0 -290 82t-161 241z" />
<glyph unicode="4" horiz-adv-x="991" d="M41 354v135l596 863h207v-846h86v-152h-86v-354h-164v354h-639zM246 506h434v495l4 144z" />
<glyph unicode="5" horiz-adv-x="1032" d="M92 707l105 645h653v-164h-516l-51 -314q97 46 204 46q129 0 238 -64t172.5 -173.5t63.5 -238.5q0 -195 -139 -333t-335 -138q-122 0 -225.5 57t-167.5 154l129 84q44 -64 113 -101.5t151 -37.5q132 0 225 92.5t93 224.5t-93 225t-225 93q-85 0 -158 -40t-108 -106z" />
<glyph unicode="6" horiz-adv-x="1089" d="M82 444q0 119 55 226l344 684h183l-226 -449q56 15 117 15q196 0 334.5 -139.5t138.5 -336.5q0 -195 -138.5 -333t-334.5 -138t-334.5 138t-138.5 333zM238 446q0 -132 92.5 -224.5t224.5 -92.5t224.5 92.5t92.5 224.5t-92.5 225t-224.5 93t-224.5 -93t-92.5 -225z" />
<glyph unicode="7" horiz-adv-x="1015" d="M61 1188v164h914l-627 -1352h-176l549 1188h-660z" />
<glyph unicode="8" horiz-adv-x="1024" d="M63 356q0 123 69 218t183 137v2q-89 40 -140.5 124t-51.5 189q0 147 101.5 245.5t287.5 98.5t287.5 -98.5t101.5 -245.5q0 -103 -50.5 -187.5t-139.5 -125.5v-2q118 -45 184 -140.5t66 -214.5q0 -161 -118 -268.5t-331 -107.5q-212 0 -330.5 108t-118.5 268zM231 356 q0 -112 79.5 -175.5t201.5 -63.5q123 0 202 63.5t79 175.5q0 114 -81 182t-200 68q-118 0 -199.5 -68.5t-81.5 -181.5zM293 1018q0 -99 64.5 -158t154.5 -59t154.5 59t64.5 158q0 97 -63.5 156t-155.5 59t-155.5 -59t-63.5 -156z" />
<glyph unicode="9" horiz-adv-x="1052" d="M53 909q0 195 138.5 333t334.5 138t334.5 -138t138.5 -333q0 -120 -57 -225l-342 -684h-184l225 449q-56 -15 -115 -15q-96 0 -184 37.5t-151 101.5t-100.5 151.5t-37.5 184.5zM209 907q0 -132 92.5 -224.5t224.5 -92.5t225 92.5t93 224.5t-93 225t-225 93t-224.5 -93 t-92.5 -225z" />
<glyph unicode=":" horiz-adv-x="565" d="M147 115q0 55 40 94t96 39t95.5 -39t39.5 -94q0 -57 -39.5 -96t-95.5 -39t-96 39t-40 96zM147 913q0 55 40 94.5t96 39.5t95.5 -39.5t39.5 -94.5q0 -57 -39.5 -96t-95.5 -39t-96 39t-40 96z" />
<glyph unicode=";" horiz-adv-x="565" d="M78 -158q164 52 203 138q-54 3 -91.5 41.5t-37.5 93.5t39.5 94t95.5 39q60 0 96.5 -38t42.5 -104q12 -138 -73.5 -237.5t-231.5 -132.5zM160 909q0 57 39.5 96t95.5 39t95.5 -39t39.5 -96q0 -55 -39.5 -94t-95.5 -39t-95.5 39t-39.5 94z" />
<glyph unicode="&#x3c;" d="M125 518v191l975 460v-170l-828 -385l828 -387v-170z" />
<glyph unicode="=" d="M111 340v154h974v-154h-974zM111 750v153h974v-153h-974z" />
<glyph unicode="&#x3e;" d="M96 57v170l828 387l-828 385v170l975 -460v-191z" />
<glyph unicode="?" horiz-adv-x="1026" d="M102 1139q53 110 158.5 176.5t231.5 66.5q179 0 305.5 -126t126.5 -306q0 -160 -106.5 -282.5t-262.5 -145.5v-174h-143v309l71 5q123 9 210 90t87 198q0 120 -84 204.5t-204 84.5q-85 0 -156 -45.5t-105 -118.5zM346 115q0 55 39.5 94t95.5 39t95.5 -39t39.5 -94 q0 -57 -39.5 -96t-95.5 -39t-95.5 39t-39.5 96z" />
<glyph unicode="@" horiz-adv-x="1976" d="M115 477q0 189 65 351.5t182.5 279.5t289 183.5t376.5 66.5q146 0 271.5 -33.5t229.5 -104t178 -174t114.5 -250t40.5 -325.5q0 -491 -301 -491q-83 0 -130.5 35t-72.5 100q-48 -88 -145 -140.5t-222 -52.5q-102 0 -194.5 39.5t-161.5 108t-109.5 168t-40.5 213.5 t40.5 213.5t109.5 168t161.5 107.5t194.5 39q117 0 212 -51t147 -133v120h192v-686q0 -59 9.5 -81.5t31.5 -22.5q57 0 96 114.5t39 274.5q0 338 -190.5 521.5t-511.5 183.5q-172 0 -314.5 -55t-239 -152.5t-149.5 -234.5t-53 -300q0 -220 92.5 -391t260 -265.5t382.5 -94.5 q197 0 351 77l53 -127q-182 -90 -400 -90q-189 0 -353.5 67t-281 184.5t-183 283t-66.5 356.5zM639 451q0 -164 103.5 -272.5t248.5 -108.5q131 0 231.5 78t127.5 208v189q-27 129 -127.5 206.5t-231.5 77.5q-145 0 -248.5 -107.5t-103.5 -270.5z" />
<glyph unicode="A" horiz-adv-x="1310" d="M33 0l526 1352h195l524 -1352h-174l-121 317h-657l-121 -317h-172zM385 471h539l-205 537l-64 188h-4l-59 -182z" />
<glyph unicode="B" horiz-adv-x="1296" d="M201 0v1352h481q230 0 345.5 -97.5t115.5 -263.5q0 -123 -61.5 -202t-166.5 -101v-2q124 -26 193.5 -111.5t69.5 -205.5q0 -165 -132 -267t-366 -102h-479zM365 154h354q143 0 215 58t72 167t-72 167t-215 58h-354v-450zM365 758h319q145 0 216 54.5t71 166.5 q0 219 -287 219h-319v-440z" />
<glyph unicode="C" horiz-adv-x="1390" d="M82 678q0 187 93 346.5t252 252.5t345 93q158 0 298 -68.5t237 -187.5l-123 -102q-75 92 -182 144t-230 52q-143 0 -264.5 -71t-192.5 -193.5t-71 -267.5q0 -144 71 -267t192.5 -194.5t264.5 -71.5q122 0 229.5 53.5t182.5 147.5l125 -102q-97 -122 -237.5 -191 t-299.5 -69q-187 0 -345.5 93t-251.5 253.5t-93 349.5z" />
<glyph unicode="D" horiz-adv-x="1482" d="M201 0v1352h499q320 0 500 -176.5t180 -499.5t-180 -499.5t-500 -176.5h-499zM365 154h352q232 0 361.5 138t129.5 384t-129.5 384t-361.5 138h-352v-1044z" />
<glyph unicode="E" horiz-adv-x="1265" d="M201 0v1352h948v-154h-784v-450h686v-160h-686v-434h815v-154h-979z" />
<glyph unicode="F" horiz-adv-x="1191" d="M184 0v1352h946v-154h-782v-450h686v-160h-686v-588h-164z" />
<glyph unicode="G" horiz-adv-x="1525" d="M72 678q0 143 54.5 272t147 222t220.5 147.5t270 54.5q167 0 313.5 -74.5t245.5 -203.5l-133 -101q-73 100 -186 158.5t-240 58.5q-145 0 -265.5 -71t-189.5 -194.5t-69 -270.5q0 -146 69 -269t189.5 -194.5t265.5 -71.5q160 0 291.5 86.5t197.5 227.5h-403v170h614 q-10 -135 -69.5 -255t-152.5 -205.5t-217.5 -135t-260.5 -49.5q-142 0 -270 54.5t-220.5 147.5t-147 222.5t-54.5 273.5z" />
<glyph unicode="H" horiz-adv-x="1462" d="M201 0v1352h164v-604h733v604h164v-1352h-164v588h-733v-588h-164z" />
<glyph unicode="I" horiz-adv-x="565" d="M197 0v1352h172v-1352h-172z" />
<glyph unicode="J" horiz-adv-x="1085" d="M70 479l157 -2q0 -26 4 -76q15 -128 79 -198t167 -70q242 0 283 254q8 47 8 117v848h164v-889q0 -222 -126 -352.5t-323 -130.5q-176 0 -285 113t-126 321q-2 20 -2 65z" />
<glyph unicode="K" horiz-adv-x="1302" d="M201 0v1352h164v-697l679 697h216l-539 -551l545 -801h-197l-463 680l-241 -246v-434h-164z" />
<glyph unicode="L" horiz-adv-x="1167" d="M184 0v1352h164v-1198h774v-154h-938z" />
<glyph unicode="M" horiz-adv-x="1654" d="M174 0v1352h252l297 -822l102 -337h4l105 335l295 824h252v-1352h-156v850l18 356h-2l-444 -1206h-139l-445 1206h-2l19 -356v-850h-156z" />
<glyph unicode="N" horiz-adv-x="1462" d="M201 0v1352h202l564 -901l145 -271h2l-8 217v955h156v-1352h-203l-565 905l-144 266h-2l8 -217v-954h-155z" />
<glyph unicode="O" horiz-adv-x="1527" d="M72 678q0 187 93 346.5t252.5 252.5t346.5 93t346.5 -93t252.5 -252.5t93 -346.5q0 -189 -93 -349.5t-252 -253.5t-347 -93t-347 93t-252 253.5t-93 349.5zM229 676q0 -108 42.5 -207t114.5 -171t171 -114.5t207 -42.5q144 0 266.5 72t194 195.5t71.5 267.5 q0 145 -71.5 268.5t-194 195.5t-266.5 72t-267.5 -72t-195.5 -195.5t-72 -268.5z" />
<glyph unicode="P" horiz-adv-x="1269" d="M201 0v1352h512q204 0 344.5 -131.5t140.5 -315.5q0 -121 -63.5 -225.5t-175.5 -167.5t-246 -63h-348v-449h-164zM365 602h346q141 0 228 88.5t87 214.5q0 125 -87 209t-228 84h-346v-596z" />
<glyph unicode="Q" horiz-adv-x="1560" d="M72 678q0 187 93 346.5t252.5 252.5t346.5 93t346.5 -93t252.5 -252.5t93 -346.5q0 -146 -56.5 -276.5t-156.5 -227.5l170 -237l-139 -99l-168 234q-158 -90 -342 -90q-188 0 -347 93t-252 253.5t-93 349.5zM229 676q0 -108 42.5 -207t114.5 -171t171 -114.5t207 -42.5 q144 0 266.5 72t194 195.5t71.5 267.5q0 145 -71.5 268.5t-194 195.5t-266.5 72t-267.5 -72t-195.5 -195.5t-72 -268.5z" />
<glyph unicode="R" horiz-adv-x="1320" d="M201 0v1352h512q204 0 344.5 -131.5t140.5 -315.5q0 -130 -74 -241t-196 -168l323 -496h-194l-297 451q-14 -2 -47 -2h-348v-449h-164zM365 602h346q141 0 228 88.5t87 214.5q0 125 -87 209t-228 84h-346v-596z" />
<glyph unicode="S" horiz-adv-x="1167" d="M123 328q0 52 6 90h137v-70q0 -35 20 -72.5t57.5 -72.5t102.5 -57.5t146 -22.5q142 0 218.5 63.5t76.5 163.5q0 31 -7 57.5t-23.5 48.5t-32.5 39t-44 32.5t-48 26t-55 22.5t-53.5 17.5t-54.5 16.5q-109 32 -181 63t-130 75t-84.5 103t-26.5 138q0 174 121.5 279.5 t309.5 105.5q121 0 219.5 -44t160.5 -136.5t62 -218.5h-150q-3 131 -79.5 193.5t-202.5 62.5q-128 0 -205.5 -59.5t-77.5 -170.5q0 -32 8 -58.5t19.5 -46.5t37 -38.5t46.5 -31t62.5 -27.5t72 -24.5t86.5 -26.5q50 -15 80.5 -25.5t78 -30t78 -38t66 -48.5t56 -62.5 t34.5 -77.5t14 -97q0 -169 -124.5 -279t-331.5 -110q-86 0 -162 21t-130.5 55.5t-94 79.5t-59 94.5t-19.5 97.5z" />
<glyph unicode="T" horiz-adv-x="1228" d="M61 1198v154h1106v-154h-471v-1198h-164v1198h-471z" />
<glyph unicode="U" horiz-adv-x="1388" d="M164 504v848h164v-807q0 -212 88.5 -312t277.5 -100t278 100t89 312v807h164v-848q0 -259 -136.5 -391.5t-394.5 -132.5q-257 0 -393.5 132.5t-136.5 391.5z" />
<glyph unicode="V" horiz-adv-x="1286" d="M37 1352h176l344 -934l86 -268l86 266l344 936h176l-512 -1352h-186z" />
<glyph unicode="W" horiz-adv-x="1927" d="M53 1352h176l326 -1182l319 1182h187l319 -1186l328 1186h166l-397 -1352h-203l-240 877l-69 284h-2l-70 -284l-238 -877h-202z" />
<glyph unicode="X" horiz-adv-x="1189" d="M31 0l473 688l-432 664h194l344 -529l346 529h174l-436 -656l451 -696h-191l-366 559l-367 -559h-190z" />
<glyph unicode="Y" horiz-adv-x="1130" d="M0 1352h195l370 -656l371 656h194l-483 -824v-528h-164v528z" />
<glyph unicode="Z" horiz-adv-x="1230" d="M76 0l819 1198h-719v154h1004l-828 -1205h764v-147h-1040z" />
<glyph unicode="[" horiz-adv-x="671" d="M158 -344v1839h467v-143h-314v-1553h314v-143h-467z" />
<glyph unicode="\" horiz-adv-x="856" d="M-98 1495h157l764 -1638h-157z" />
<glyph unicode="]" horiz-adv-x="671" d="M47 -201h313v1553h-313v143h467v-1839h-467v143z" />
<glyph unicode="^" horiz-adv-x="1105" d="M35 727l440 768h156l440 -768h-166l-352 629l-352 -629h-166z" />
<glyph unicode="_" horiz-adv-x="1062" d="M-20 -199h1103v-153h-1103v153z" />
<glyph unicode="`" horiz-adv-x="983" d="M244 1536h170l172 -342h-162z" />
<glyph unicode="a" horiz-adv-x="1132" d="M102 254q0 106 70.5 185t192.5 116q166 52 471 57v64q0 101 -72.5 163t-188.5 62q-119 0 -205.5 -49.5t-127.5 -144.5l-121 88q40 116 158.5 182.5t295.5 66.5q89 0 165 -21.5t134.5 -63t91.5 -109t33 -154.5v-503v-209l-163 -2v151q-55 -70 -159 -111.5t-206 -41.5 q-166 0 -267.5 70.5t-101.5 203.5zM266 254q0 -63 61 -100t152 -37q84 0 165 28t136.5 81.5t55.5 117.5v137q-276 -11 -420 -51q-68 -20 -109 -65.5t-41 -110.5z" />
<glyph unicode="b" horiz-adv-x="1228" d="M133 0v1495h164v-629q54 77 146 125.5t206 48.5q102 0 194.5 -39t161.5 -107.5t109.5 -168t40.5 -213.5t-40.5 -213.5t-109.5 -168t-161.5 -107.5t-194.5 -39q-125 0 -221.5 52.5t-144.5 141.5v-178h-150zM283 500q0 -163 106.5 -266t259.5 -103q145 0 248.5 108.5 t103.5 272.5q0 163 -103.5 271t-248.5 108q-153 0 -259.5 -102.5t-106.5 -264.5v-24z" />
<glyph unicode="c" horiz-adv-x="1126" d="M82 508q0 147 71 271t192.5 196t264.5 72q141 0 263 -72t192 -193l-127 -77q-50 90 -136.5 141t-191.5 51q-157 0 -261.5 -111.5t-104.5 -273.5t104 -269.5t262 -107.5q103 0 185.5 43t134.5 127l133 -76q-68 -116 -189.5 -181.5t-263.5 -65.5q-144 0 -265 69t-192 190 t-71 267z" />
<glyph unicode="d" horiz-adv-x="1226" d="M72 512q0 114 40.5 213.5t109.5 168t161.5 107.5t194.5 39q114 0 206 -48.5t146 -125.5v629h164v-1495h-150v178q-48 -89 -144.5 -141.5t-221.5 -52.5q-102 0 -194.5 39t-161.5 107.5t-109.5 168t-40.5 213.5zM225 512q0 -164 104 -272.5t249 -108.5q153 0 259.5 103 t106.5 266v24q0 162 -106.5 264.5t-259.5 102.5q-145 0 -249 -108t-104 -271z" />
<glyph unicode="e" horiz-adv-x="1169" d="M102 512q0 146 61 266.5t178 193t267 72.5q108 0 199.5 -40.5t152 -107.5t94 -153t33.5 -178q0 -56 -8 -114h-813q20 -150 121.5 -239t233.5 -89q103 0 194 41.5t117 111.5l135 -73q-58 -104 -176.5 -162.5t-269.5 -58.5q-145 0 -262 62t-187 184t-70 284zM268 590h662 q-19 136 -106.5 223.5t-215.5 87.5q-131 0 -223.5 -89t-116.5 -222z" />
<glyph unicode="f" horiz-adv-x="843" d="M61 883v141h205v172q0 141 86 225t250 84q102 0 164 -30v-150q-85 31 -150 31q-186 0 -186 -176v-156h342v-141h-342v-883h-164v883h-205z" />
<glyph unicode="g" horiz-adv-x="1165" d="M115 -170q0 70 47.5 123t132.5 76q-139 66 -139 188q0 119 104 180q-100 106 -100 260q0 156 120 271.5t300 115.5q132 0 241 -69l162 153l102 -104l-157 -152q71 -92 71 -215q0 -101 -52.5 -189.5t-150 -143t-216.5 -54.5q-140 0 -240 62q-33 -33 -33 -90q0 -53 37 -82 t98 -29h340q145 0 227.5 -66.5t82.5 -177.5q0 -99 -69 -174.5t-183.5 -114t-253.5 -38.5q-233 0 -352 74t-119 196zM266 -137q0 -77 86.5 -121.5t251.5 -44.5q156 0 246 50.5t90 121.5q0 59 -46.5 90t-156.5 31h-274q-95 0 -146 -34t-51 -93zM319 657q0 -106 77 -180 t184 -74t184.5 74t77.5 180q0 108 -77 181t-185 73t-184.5 -72.5t-76.5 -181.5z" />
<glyph unicode="h" horiz-adv-x="1163" d="M133 0v1495h164v-625q102 174 334 174q174 0 286.5 -100t112.5 -289v-655h-164v598q0 160 -68.5 231.5t-183.5 71.5q-47 0 -91 -12t-85.5 -39t-72.5 -67.5t-49.5 -102t-18.5 -137.5v-543h-164z" />
<glyph unicode="i" horiz-adv-x="512" d="M133 1335q0 51 36 87t87 36t87 -36t36 -87t-36 -87t-87 -36t-87 36t-36 87zM174 0v1024h164v-1024h-164z" />
<glyph unicode="j" horiz-adv-x="503" d="M20 -281q150 0 150 193v1112h164v-1128q0 -91 -28.5 -159.5t-75.5 -105t-99 -54t-108 -17.5zM125 1335q0 53 37.5 91t89.5 38t90.5 -38t38.5 -91q0 -52 -38 -89.5t-91 -37.5q-52 0 -89.5 37t-37.5 90z" />
<glyph unicode="k" horiz-adv-x="1069" d="M119 0v1495h164v-1001l530 530h205l-400 -399l424 -625h-198l-344 506l-217 -217v-289h-164z" />
<glyph unicode="l" horiz-adv-x="468" d="M154 0v1495h161v-1495h-161z" />
<glyph unicode="m" horiz-adv-x="1914" d="M190 0v1024h144l10 -160q53 90 140.5 135t187.5 45q113 0 208 -50.5t144 -149.5q44 97 146.5 148.5t209.5 51.5q60 0 116.5 -14t106.5 -45t87.5 -76t59.5 -110t22 -144v-655h-164v639q0 133 -67 197.5t-175 64.5q-126 0 -214.5 -91t-88.5 -249v-561h-164v639 q0 133 -67 197.5t-175 64.5q-53 0 -104.5 -20.5t-97 -60.5t-73.5 -111t-28 -162v-547h-164z" />
<glyph unicode="n" horiz-adv-x="1163" d="M133 0v1024h143l11 -160q52 92 142 136t202 44q174 0 286.5 -100t112.5 -289v-655h-164v598q0 160 -68.5 231.5t-183.5 71.5q-59 0 -113 -19.5t-101 -59.5t-75 -111.5t-28 -165.5v-545h-164z" />
<glyph unicode="o" horiz-adv-x="1187" d="M61 508q0 147 71.5 271t194.5 196t267 72t266.5 -72t194 -196t71.5 -271q0 -146 -71.5 -266.5t-193.5 -189t-267 -68.5t-267 68.5t-194 189t-72 266.5zM225 512q0 -158 106.5 -264.5t262.5 -106.5t262.5 106.5t106.5 264.5q0 159 -107 271t-262 112t-262 -112t-107 -271z " />
<glyph unicode="p" horiz-adv-x="1212" d="M133 -430v1454h150v-178q48 89 144.5 141.5t221.5 52.5q102 0 194.5 -39t161.5 -107.5t109.5 -168t40.5 -213.5t-40.5 -213.5t-109.5 -168t-161.5 -107.5t-194.5 -39q-114 0 -206 48.5t-146 125.5v-588h-164zM283 500q0 -162 106.5 -264.5t259.5 -102.5q145 0 248.5 108 t103.5 271q0 164 -103.5 272.5t-248.5 108.5q-153 0 -259.5 -103t-106.5 -266v-24z" />
<glyph unicode="q" horiz-adv-x="1245" d="M96 512q0 114 40.5 213.5t109.5 168t161.5 107.5t194.5 39q123 0 220.5 -54.5t146.5 -141.5v180h149v-1454h-164v584q-52 -78 -144 -124t-208 -46q-102 0 -194.5 39t-161.5 107.5t-109.5 168t-40.5 213.5zM250 512q0 -164 103.5 -272.5t248.5 -108.5q153 0 260 103 t107 266v24q0 162 -107 264.5t-260 102.5q-145 0 -248.5 -108t-103.5 -271z" />
<glyph unicode="r" horiz-adv-x="800" d="M133 0v1024h164v-150q89 170 319 170q74 0 113 -20l-33 -160q-52 27 -129 27q-48 0 -94.5 -21t-86.5 -61.5t-64.5 -107t-24.5 -148.5v-553h-164z" />
<glyph unicode="s" horiz-adv-x="1052" d="M82 211l133 92q35 -90 121.5 -135t204.5 -45q119 0 182 42.5t63 108.5q0 29 -13.5 51t-33.5 37t-58.5 28.5t-72 21.5t-90.5 20q-55 11 -87.5 19t-80 22t-76 28t-61 36.5t-50.5 48.5t-30 62t-12 79q0 140 110.5 228.5t303.5 88.5q315 0 395 -245l-139 -82 q-61 184 -261 184q-107 0 -176 -45t-69 -113q0 -26 10 -46.5t33 -36.5t44.5 -27t59 -20.5t62 -15t67.5 -13.5q49 -9 80 -16t76.5 -20t74.5 -27t62 -36t52 -48t31.5 -63t12.5 -81q0 -142 -115 -227.5t-307 -85.5q-156 0 -272.5 58.5t-173.5 172.5z" />
<glyph unicode="t" horiz-adv-x="876" d="M61 883v141h205v291h164v-291h379v-141h-379v-600q0 -74 39.5 -114t108.5 -40q15 0 30 2t30.5 7t25.5 8.5t27.5 12.5t23 12t25 14.5t22.5 13.5l53 -127q-102 -92 -264 -92q-125 0 -205 67t-80 207v629h-205z" />
<glyph unicode="u" horiz-adv-x="1142" d="M113 354v670h163v-627q0 -150 62 -212t180 -62q141 0 234.5 86.5t93.5 257.5v557h164v-1024h-158v147q-106 -167 -363 -167q-79 0 -145 21t-118.5 64t-82.5 117t-30 172z" />
<glyph unicode="v" horiz-adv-x="1056" d="M20 1024h187l323 -858l334 858h172l-426 -1024h-164z" />
<glyph unicode="w" horiz-adv-x="1712" d="M55 1024h183l258 -834l278 834h164l279 -834l258 834h182l-357 -1024h-163l-289 815l-273 -815h-163z" />
<glyph unicode="x" horiz-adv-x="1050" d="M39 0l393 516l-369 508h205l271 -379l266 379h192l-370 -502l377 -522h-201l-283 395l-291 -395h-190z" />
<glyph unicode="y" horiz-adv-x="1079" d="M29 -354l57 139q58 -82 166 -82q60 0 105 35.5t81 130.5l54 133l-429 1022h187l256 -668l63 -182l74 203l240 647h176l-481 -1196q-59 -148 -133.5 -208t-190.5 -60q-77 0 -129.5 20t-95.5 66z" />
<glyph unicode="z" horiz-adv-x="1052" d="M51 0l649 883h-598v141h887l-647 -887l619 4v-141h-910z" />
<glyph unicode="{" horiz-adv-x="677" d="M37 504v143q124 0 176.5 48.5t52.5 164.5v424q0 126 75.5 190t246.5 64l26 -133q-103 0 -148.5 -26.5t-45.5 -82.5v-450q0 -88 -38.5 -158.5t-111.5 -112.5q73 -43 111.5 -112.5t38.5 -157.5v-450q0 -56 45.5 -82.5t148.5 -26.5l-26 -133q-171 0 -246.5 64t-75.5 190v424 q0 116 -52.5 164.5t-176.5 48.5z" />
<glyph unicode="|" horiz-adv-x="456" d="M158 -344v1839h141v-1839h-141z" />
<glyph unicode="}" horiz-adv-x="677" d="M63 -254q103 0 149 26.5t46 82.5v450q0 88 38.5 157.5t111.5 112.5q-73 42 -111.5 112.5t-38.5 158.5v450q0 56 -46 82.5t-149 26.5l27 133q171 0 246.5 -64t75.5 -190v-424q0 -116 52.5 -164.5t176.5 -48.5v-143q-124 0 -176.5 -48.5t-52.5 -164.5v-424 q0 -126 -75.5 -190t-246.5 -64z" />
<glyph unicode="~" horiz-adv-x="1064" d="M68 481q24 305 268 305q61 0 118 -23.5t93 -52t81.5 -52t86.5 -23.5q101 0 127 151h155q-24 -305 -266 -305q-51 0 -97.5 15.5t-80.5 38t-65.5 45t-67 38t-70.5 15.5q-101 0 -127 -152h-155z" />
<glyph unicode="&#xa1;" horiz-adv-x="499" d="M115 911q0 57 39 96.5t96 39.5t96 -39.5t39 -96.5t-39 -96t-96 -39t-96 39t-39 96zM164 -328l16 946h139l17 -946h-172z" />
<glyph unicode="&#xa2;" horiz-adv-x="1120" d="M61 508q0 202 132 353t329 181v187h137v-182q127 -13 235.5 -84.5t172.5 -180.5l-123 -77q-45 78 -120.5 130.5t-164.5 65.5v-778q85 12 158 60.5t119 121.5l129 -76q-64 -106 -171.5 -175.5t-234.5 -82.5v-176h-137v180q-196 29 -328.5 180.5t-132.5 352.5zM209 512 q0 -140 89 -248.5t224 -136.5v770q-135 -28 -224 -136.5t-89 -248.5z" />
<glyph unicode="&#xa3;" horiz-adv-x="1241" d="M82 156q0 76 65.5 129t176.5 53q123 0 239 -68q10 45 10 84q0 99 -79 215h-338v133h235q-59 78 -83.5 136.5t-24.5 117.5q0 182 121.5 299t310.5 117q161 0 262 -79t145 -240l-141 -78q-31 124 -94.5 186t-179.5 62q-125 0 -199 -66t-74 -174q0 -57 25 -112t94 -154 l10 -15h385v-133h-303q51 -102 51 -207q0 -83 -34 -161q43 -30 69.5 -45.5t69 -30t84.5 -14.5q88 0 127 47.5t41 154.5h133q0 -163 -73 -248t-206 -85q-84 0 -155.5 31t-157.5 87q-108 -118 -287 -118q-103 0 -164 49t-61 127zM231 156q0 -31 27 -48.5t70 -17.5 q106 0 174 68q-98 57 -176 57q-95 0 -95 -59z" />
<glyph unicode="&#xa4;" horiz-adv-x="1320" d="M123 240l180 184q-74 107 -74 250q0 141 76 254l-182 178l104 104l183 -180q110 74 252 74q144 0 253 -76l179 182l104 -104l-178 -182q72 -112 72 -250q0 -143 -76 -256l182 -178l-104 -105l-185 178q-107 -71 -247 -71q-143 0 -256 77l-179 -184zM393 674 q0 -124 76 -204.5t193 -80.5q116 0 191 80.5t75 204.5q0 123 -75 202.5t-191 79.5q-117 0 -193 -79.5t-76 -202.5z" />
<glyph unicode="&#xa5;" horiz-adv-x="1228" d="M49 1352h191l372 -639h4l373 639h191l-455 -752l90 8h266v-123h-395v-153h395v-113h-395v-219h-143v219h-393v113h393v153h-393v123h264l90 -8z" />
<glyph unicode="&#xa6;" horiz-adv-x="481" d="M170 -344v743h141v-743h-141zM170 752v743h141v-743h-141z" />
<glyph unicode="&#xa7;" horiz-adv-x="1183" d="M45 592q0 92 52 162.5t136 117.5q-63 69 -63 193q0 131 120 219t320 88q111 0 196.5 -28.5t136 -71.5t93.5 -107l-114 -98q-54 81 -127.5 121.5t-188.5 40.5q-130 0 -201 -39.5t-71 -110.5q0 -91 78 -138t282 -73q248 -32 350.5 -104t102.5 -209q0 -92 -52.5 -163 t-136.5 -118q64 -70 64 -192q0 -131 -117.5 -219t-308.5 -88q-293 0 -440 207l120 100q47 -85 123.5 -124.5t194.5 -39.5q124 0 194 39.5t70 110.5q0 90 -78 137t-282 74q-248 33 -350.5 105t-102.5 208zM209 606q0 -76 72.5 -115.5t259.5 -62.5q180 -21 284 -66 q158 69 158 179q0 76 -73 116.5t-259 61.5q-180 21 -284 63q-158 -64 -158 -176z" />
<glyph unicode="&#xa8;" horiz-adv-x="983" d="M182 1309q0 48 34 82t83 34q47 0 82 -34.5t35 -81.5t-35 -82t-82 -35q-49 0 -83 34.5t-34 82.5zM580 1309q0 48 33.5 82t82.5 34q47 0 82 -34.5t35 -81.5t-35 -82t-82 -35q-49 0 -82.5 34.5t-33.5 82.5z" />
<glyph unicode="&#xa9;" horiz-adv-x="1638" d="M135 678q0 140 56 268.5t149.5 221.5t223 148.5t270.5 55.5q188 0 349 -93.5t255 -253.5t94 -347q0 -189 -94 -350t-255 -254.5t-349 -93.5q-141 0 -270.5 55.5t-223 149t-149.5 222.5t-56 271zM281 676q0 -112 44 -215t118 -178t176.5 -119.5t214.5 -44.5t215 44.5 t178 119.5t119.5 178t44.5 215q0 113 -44.5 216.5t-119.5 178.5t-178 119.5t-215 44.5t-214.5 -44.5t-176.5 -119.5t-118 -178.5t-44 -216.5zM408 672q0 118 58 217.5t157 157t215 57.5q117 0 215.5 -57.5t156.5 -155.5l-100 -62q-40 73 -112.5 116.5t-159.5 43.5 q-129 0 -220.5 -92.5t-91.5 -220.5q0 -129 91.5 -222.5t220.5 -93.5q83 0 153.5 41t112.5 109l104 -59q-58 -95 -155.5 -151t-214.5 -56q-177 0 -303.5 125.5t-126.5 302.5z" />
<glyph unicode="&#xaa;" horiz-adv-x="741" d="M18 840q0 85 65 137.5t202 77.5l190 32v29q0 63 -39.5 99t-111.5 36q-145 0 -193 -125l-100 60q24 80 101.5 128t197.5 48q139 0 211.5 -61.5t72.5 -180.5v-286q0 -64 64 -64q33 0 49 8l-10 -90q-41 -18 -80 -18q-113 0 -137 102q-36 -48 -103 -75t-153 -27 q-105 0 -165.5 44t-60.5 126zM33 412v108h655v-108h-655zM162 856q0 -41 29 -58.5t90 -17.5q73 0 133.5 38t60.5 100v77l-145 -28q-91 -18 -129.5 -42t-38.5 -69z" />
<glyph unicode="&#xab;" horiz-adv-x="968" d="M84 543l258 401h178l-262 -401l262 -402h-178zM446 543l259 401h178l-262 -401l262 -402h-178z" />
<glyph unicode="&#xac;" d="M100 571v154h996v-457h-164v303h-832z" />
<glyph unicode="&#xad;" horiz-adv-x="1003" d="M164 451v170h676v-170h-676z" />
<glyph unicode="&#xae;" horiz-adv-x="1601" d="M102 678q0 140 56 268.5t149.5 221.5t223 148.5t270.5 55.5q188 0 349 -93.5t255 -253.5t94 -347q0 -189 -94 -350t-255 -254.5t-349 -93.5q-141 0 -270.5 55.5t-223 149t-149.5 222.5t-56 271zM248 676q0 -112 44 -215t118 -178t176.5 -119.5t214.5 -44.5t215 44.5 t178 119.5t119.5 178t44.5 215q0 113 -44.5 216.5t-119.5 178.5t-178 119.5t-215 44.5t-214.5 -44.5t-176.5 -119.5t-118 -178.5t-44 -216.5zM524 293v758h312q129 0 207.5 -65.5t78.5 -176.5q0 -86 -49 -145.5t-135 -83.5l201 -287h-156l-182 274h-139v-274h-138zM662 672 h172q151 0 151 137t-151 137h-172v-274z" />
<glyph unicode="&#xaf;" horiz-adv-x="983" d="M135 1221v137h713v-137h-713z" />
<glyph unicode="&#xb0;" horiz-adv-x="952" d="M184 1081q0 121 86 207t207 86q120 0 205.5 -86t85.5 -207t-85.5 -207t-205.5 -86q-121 0 -207 86t-86 207zM309 1081q0 -69 49.5 -118.5t118.5 -49.5t118.5 49.5t49.5 118.5t-49.5 118.5t-118.5 49.5t-118.5 -49.5t-49.5 -118.5z" />
<glyph unicode="&#xb1;" d="M100 0v154h996v-154h-996zM100 735v154h422v422h154v-422h420v-154h-420v-420h-154v420h-422z" />
<glyph unicode="&#xb2;" horiz-adv-x="628" d="M41 1268q18 109 92 175t189 66q123 0 190.5 -69.5t67.5 -186.5q0 -102 -65 -206t-220 -244h67h216v-121h-510v88q92 84 143.5 132t106 104.5t80 94t42.5 76.5t17 76q0 62 -33.5 100t-106.5 38t-113 -47t-50 -127z" />
<glyph unicode="&#xb3;" horiz-adv-x="700" d="M61 883l132 45q24 -140 155 -140q65 0 109.5 30t44.5 95q0 123 -154 123h-55v103h49q70 0 104.5 33.5t34.5 93.5q0 58 -39 89t-94 31q-52 0 -87.5 -31t-47.5 -91l-129 47q26 99 91.5 146.5t174.5 47.5q132 0 203.5 -60t71.5 -161q0 -30 -4.5 -55t-17 -45l-20 -32t-27 -27 t-23.5 -17.5t-25 -15.5v-2q26 -14 41.5 -25t41 -35.5t39 -59.5t13.5 -79q0 -103 -79 -162t-214 -59q-120 0 -196.5 60t-92.5 153z" />
<glyph unicode="&#xb4;" horiz-adv-x="983" d="M397 1194l172 342h170l-180 -342h-162z" />
<glyph unicode="&#xb5;" horiz-adv-x="1210" d="M158 -430v1454h164v-627q0 -150 61.5 -212t179.5 -62q134 0 221 67t107 187v647h164v-1024h-133l-15 166q-106 -186 -372 -186q-136 0 -213 92v-502h-164z" />
<glyph unicode="&#xb6;" horiz-adv-x="1304" d="M84 922q0 201 135 315.5t385 114.5h514v-1557h-143v1419h-264v-1419h-150v699q-221 3 -349 118.5t-128 309.5z" />
<glyph unicode="&#xb7;" horiz-adv-x="421" d="M76 729q0 55 39.5 94t95.5 39t95.5 -39t39.5 -94q0 -57 -39.5 -96t-95.5 -39t-95.5 39t-39.5 96z" />
<glyph unicode="&#xb8;" horiz-adv-x="983" d="M279 -369l61 113q58 -61 141 -61q50 0 83.5 32.5t33.5 85.5q0 65 -42 108.5t-161 96.5l90 53q122 -37 189 -114.5t67 -165.5q0 -91 -64 -155t-173 -64q-146 0 -225 71z" />
<glyph unicode="&#xb9;" horiz-adv-x="454" d="M0 1348l240 147h127v-813h-144v514q0 35 4 129l-153 -96z" />
<glyph unicode="&#xba;" horiz-adv-x="696" d="M27 1016q0 165 82.5 255.5t238.5 90.5q157 0 239.5 -90.5t82.5 -255.5t-82.5 -255.5t-239.5 -90.5q-156 0 -238.5 90.5t-82.5 255.5zM53 412v108h590v-108h-590zM170 1016q0 -113 44.5 -173.5t133.5 -60.5t133.5 60.5t44.5 173.5t-44.5 174t-133.5 61t-133.5 -61 t-44.5 -174z" />
<glyph unicode="&#xbb;" horiz-adv-x="966" d="M84 141l262 402l-262 401h178l258 -401l-258 -402h-178zM446 141l263 402l-263 401h179l258 -401l-258 -402h-179z" />
<glyph unicode="&#xbc;" horiz-adv-x="1499" d="M0 1214l240 148h127v-813h-144v514q0 35 4 129l-153 -96zM297 0l621 1352h161l-620 -1352h-162zM848 205v82l358 518h180v-488h52v-112h-52v-213h-129v213h-409zM1012 317h245v277l3 86z" />
<glyph unicode="&#xbd;" horiz-adv-x="1564" d="M0 1214l240 148h127v-813h-144v514q0 35 4 129l-153 -96zM297 0l621 1352h161l-620 -1352h-162zM977 578q18 110 91.5 175.5t188.5 65.5q123 0 191 -69.5t68 -186.5q0 -102 -65 -206t-220 -244h67h215v-121h-509v88q92 84 143.5 132t106 104.5t80 94t42.5 76.5t17 76 q0 62 -33.5 99.5t-106.5 37.5t-113 -47t-50 -127z" />
<glyph unicode="&#xbe;" horiz-adv-x="1744" d="M61 750l132 45q24 -140 155 -140q65 0 109.5 30t44.5 95q0 123 -154 123h-55v103h49q70 0 104.5 33.5t34.5 93.5q0 58 -39 89t-94 31q-52 0 -87.5 -31.5t-47.5 -91.5l-129 48q26 99 91.5 146.5t174.5 47.5q132 0 203.5 -60t71.5 -161q0 -44 -10.5 -77.5t-33.5 -57.5 t-34.5 -32.5t-38.5 -25.5v-2q21 -12 32 -18.5t34 -25.5t35.5 -38t23 -49.5t10.5 -66.5q0 -103 -79 -162t-214 -59q-120 0 -196.5 60t-92.5 153zM543 0l620 1352h162l-620 -1352h-162zM1094 205v82l358 518h180v-488h51v-112h-51v-213h-129v213h-409zM1257 317h246v277l2 86z " />
<glyph unicode="&#xbf;" horiz-adv-x="1058" d="M139 74q0 160 106.5 282.5t262.5 145.5v174h143v-309l-71 -5q-123 -9 -210 -90t-87 -198q0 -120 84 -204.5t204 -84.5q85 0 155.5 45.5t104.5 118.5l130 -64q-53 -110 -158.5 -176.5t-231.5 -66.5q-179 0 -305.5 126t-126.5 306zM446 909q0 57 40 96t96 39t95.5 -39 t39.5 -96q0 -55 -39.5 -94t-95.5 -39t-96 39t-40 94z" />
<glyph unicode="&#xc0;" horiz-adv-x="1310" d="M33 0l526 1352h195l524 -1352h-174l-121 317h-657l-121 -317h-172zM385 471h539l-205 537l-64 188h-4l-59 -182zM426 1825h174l117 -303h-166z" />
<glyph unicode="&#xc1;" horiz-adv-x="1310" d="M33 0l526 1352h195l524 -1352h-174l-121 317h-657l-121 -317h-172zM385 471h539l-205 537l-64 188h-4l-59 -182zM569 1522l117 303h174l-125 -303h-166z" />
<glyph unicode="&#xc2;" horiz-adv-x="1310" d="M33 0l526 1352h195l524 -1352h-174l-121 317h-657l-121 -317h-172zM330 1507l233 342h185l233 -342h-150l-176 236l-176 -236h-149zM385 471h539l-205 537l-64 188h-4l-59 -182z" />
<glyph unicode="&#xc3;" horiz-adv-x="1310" d="M33 0l526 1352h195l524 -1352h-174l-121 317h-657l-121 -317h-172zM283 1520q21 274 231 274q42 0 78.5 -14.5t62 -35t47.5 -40.5t45.5 -34.5t45.5 -14.5q44 0 67.5 35.5t34.5 105.5h129q-21 -274 -229 -274q-43 0 -79.5 14.5t-62 35t-47.5 40.5t-46 34.5t-48 14.5 q-43 0 -66 -35t-34 -106h-129zM385 471h539l-205 537l-64 188h-4l-59 -182z" />
<glyph unicode="&#xc4;" horiz-adv-x="1310" d="M33 0l526 1352h195l524 -1352h-174l-121 317h-657l-121 -317h-172zM340 1636q0 48 34 82.5t83 34.5q47 0 81.5 -35t34.5 -82t-34.5 -81.5t-81.5 -34.5q-49 0 -83 34t-34 82zM385 471h539l-205 537l-64 188h-4l-59 -182zM737 1636q0 48 34 82.5t83 34.5q47 0 82 -35 t35 -82t-35 -81.5t-82 -34.5q-49 0 -83 34t-34 82z" />
<glyph unicode="&#xc5;" horiz-adv-x="1310" d="M33 0l499 1284q-62 30 -97.5 87t-35.5 132q0 108 71.5 175t186.5 67t185.5 -67t70.5 -175q0 -75 -35.5 -132t-97.5 -87l498 -1284h-174l-121 317h-657l-121 -317h-172zM385 471h539l-205 537l-64 188h-4l-59 -182zM510 1503q0 -61 41 -101t104 -40t104.5 40t41.5 101 t-41.5 101.5t-104.5 40.5t-104 -40t-41 -102z" />
<glyph unicode="&#xc6;" horiz-adv-x="1912" d="M-8 0l790 1352h1014v-154h-729v-436h555v-154h-555v-454h760v-154h-924v436h-483l-252 -436h-176zM510 590h393v608h-41z" />
<glyph unicode="&#xc7;" horiz-adv-x="1390" d="M82 678q0 187 93 346.5t252 252.5t345 93q158 0 298 -68.5t237 -187.5l-123 -102q-75 92 -182 144t-230 52q-143 0 -264.5 -71t-192.5 -193.5t-71 -267.5q0 -144 71 -267t192.5 -194.5t264.5 -71.5q122 0 229.5 53.5t182.5 147.5l125 -102q-84 -105 -202 -172t-253 -84 q113 -85 113 -207q0 -91 -64.5 -155t-173.5 -64q-146 0 -225 71l61 113q58 -61 142 -61q50 0 83 32.5t33 85.5q0 62 -37 103.5t-137 87.5q-243 45 -405 238t-162 448z" />
<glyph unicode="&#xc8;" horiz-adv-x="1265" d="M201 0v1352h948v-154h-784v-450h686v-160h-686v-434h815v-154h-979zM475 1825h174l117 -303h-166z" />
<glyph unicode="&#xc9;" horiz-adv-x="1265" d="M201 0v1352h948v-154h-784v-450h686v-160h-686v-434h815v-154h-979zM588 1522l117 303h174l-125 -303h-166z" />
<glyph unicode="&#xca;" horiz-adv-x="1265" d="M201 0v1352h948v-154h-784v-450h686v-160h-686v-434h815v-154h-979zM348 1507l234 342h184l233 -342h-149l-176 236l-176 -236h-150z" />
<glyph unicode="&#xcb;" horiz-adv-x="1265" d="M201 0v1352h948v-154h-784v-450h686v-160h-686v-434h815v-154h-979zM358 1636q0 48 34 82.5t83 34.5q47 0 82 -35t35 -82t-35 -81.5t-82 -34.5q-49 0 -83 34t-34 82zM756 1636q0 48 33.5 82.5t82.5 34.5q47 0 82 -35t35 -82t-35 -81.5t-82 -34.5q-49 0 -82.5 34t-33.5 82 z" />
<glyph unicode="&#xcc;" horiz-adv-x="565" d="M53 1825h174l117 -303h-166zM197 0v1352h172v-1352h-172z" />
<glyph unicode="&#xcd;" horiz-adv-x="565" d="M197 0v1352h172v-1352h-172zM221 1522l117 303h174l-125 -303h-166z" />
<glyph unicode="&#xce;" horiz-adv-x="565" d="M-43 1507l233 342h185l233 -342h-149l-176 236l-177 -236h-149zM197 0v1352h172v-1352h-172z" />
<glyph unicode="&#xcf;" horiz-adv-x="565" d="M-10 1636q0 53 32 85t84 32t84.5 -32.5t32.5 -84.5t-32 -84t-85 -32q-52 0 -84 32t-32 84zM197 0v1352h172v-1352h-172zM342 1636q0 52 32 84.5t85 32.5q52 0 84 -32t32 -85q0 -52 -31.5 -84t-84.5 -32t-85 32t-32 84z" />
<glyph unicode="&#xd0;" horiz-adv-x="1468" d="M33 621v122h200v609h500q320 0 500 -176.5t180 -499.5t-180 -499.5t-500 -176.5h-500v621h-200zM397 154h353q232 0 361.5 138t129.5 384t-129.5 384t-361.5 138h-353v-455h404v-122h-404v-467z" />
<glyph unicode="&#xd1;" horiz-adv-x="1462" d="M201 0v1352h202l564 -901l145 -271h2l-8 217v955h156v-1352h-203l-565 905l-144 266h-2l8 -217v-954h-155zM367 1520q21 274 231 274q42 0 78.5 -14.5t62 -35t47.5 -40.5t45.5 -34.5t45.5 -14.5q44 0 67.5 35.5t34.5 105.5h129q-21 -274 -229 -274q-43 0 -79.5 14.5 t-62 35t-47.5 40.5t-46 34.5t-48 14.5q-43 0 -66 -35t-34 -106h-129z" />
<glyph unicode="&#xd2;" horiz-adv-x="1527" d="M72 678q0 187 93 346.5t252.5 252.5t346.5 93t346.5 -93t252.5 -252.5t93 -346.5q0 -189 -93 -349.5t-252 -253.5t-347 -93t-347 93t-252 253.5t-93 349.5zM229 676q0 -108 42.5 -207t114.5 -171t171 -114.5t207 -42.5q144 0 266.5 72t194 195.5t71.5 267.5 q0 145 -71.5 268.5t-194 195.5t-266.5 72t-267.5 -72t-195.5 -195.5t-72 -268.5zM537 1825h174l116 -303h-165z" />
<glyph unicode="&#xd3;" horiz-adv-x="1527" d="M72 678q0 187 93 346.5t252.5 252.5t346.5 93t346.5 -93t252.5 -252.5t93 -346.5q0 -189 -93 -349.5t-252 -253.5t-347 -93t-347 93t-252 253.5t-93 349.5zM229 676q0 -108 42.5 -207t114.5 -171t171 -114.5t207 -42.5q144 0 266.5 72t194 195.5t71.5 267.5 q0 145 -71.5 268.5t-194 195.5t-266.5 72t-267.5 -72t-195.5 -195.5t-72 -268.5zM680 1522l117 303h174l-125 -303h-166z" />
<glyph unicode="&#xd4;" horiz-adv-x="1527" d="M72 678q0 187 93 346.5t252.5 252.5t346.5 93t346.5 -93t252.5 -252.5t93 -346.5q0 -189 -93 -349.5t-252 -253.5t-347 -93t-347 93t-252 253.5t-93 349.5zM229 676q0 -108 42.5 -207t114.5 -171t171 -114.5t207 -42.5q144 0 266.5 72t194 195.5t71.5 267.5 q0 145 -71.5 268.5t-194 195.5t-266.5 72t-267.5 -72t-195.5 -195.5t-72 -268.5zM440 1507l234 342h184l234 -342h-150l-176 236l-176 -236h-150z" />
<glyph unicode="&#xd5;" horiz-adv-x="1527" d="M72 678q0 187 93 346.5t252.5 252.5t346.5 93t346.5 -93t252.5 -252.5t93 -346.5q0 -189 -93 -349.5t-252 -253.5t-347 -93t-347 93t-252 253.5t-93 349.5zM229 676q0 -108 42.5 -207t114.5 -171t171 -114.5t207 -42.5q144 0 266.5 72t194 195.5t71.5 267.5 q0 145 -71.5 268.5t-194 195.5t-266.5 72t-267.5 -72t-195.5 -195.5t-72 -268.5zM393 1520q21 274 232 274q42 0 78 -14.5t61.5 -35t48 -40.5t45.5 -34.5t45 -14.5q44 0 68 35.5t35 105.5h129q-21 -274 -230 -274q-43 0 -79.5 14.5t-61.5 35t-47.5 40.5t-46 34.5t-47.5 14.5 q-44 0 -67 -35.5t-34 -105.5h-129z" />
<glyph unicode="&#xd6;" horiz-adv-x="1527" d="M72 678q0 187 93 346.5t252.5 252.5t346.5 93t346.5 -93t252.5 -252.5t93 -346.5q0 -189 -93 -349.5t-252 -253.5t-347 -93t-347 93t-252 253.5t-93 349.5zM229 676q0 -108 42.5 -207t114.5 -171t171 -114.5t207 -42.5q144 0 266.5 72t194 195.5t71.5 267.5 q0 145 -71.5 268.5t-194 195.5t-266.5 72t-267.5 -72t-195.5 -195.5t-72 -268.5zM451 1636q0 48 33.5 82.5t82.5 34.5q47 0 82 -35t35 -82t-35 -81.5t-82 -34.5q-49 0 -82.5 34t-33.5 82zM848 1636q0 48 34 82.5t83 34.5q47 0 81.5 -35t34.5 -82t-34.5 -81.5t-81.5 -34.5 q-49 0 -83 34t-34 82z" />
<glyph unicode="&#xd7;" d="M145 307l109 -108l344 344l342 -344l109 108l-342 344l342 342l-109 109l-342 -342l-344 342l-109 -109l453 -450l109 108l-109 109z" />
<glyph unicode="&#xd8;" horiz-adv-x="1634" d="M72 678q0 187 93 346.5t252.5 252.5t346.5 93q208 0 387 -119l104 148h146l-156 -223q99 -98 155 -226.5t56 -271.5q0 -189 -93 -349.5t-252 -253.5t-347 -93q-162 0 -303 69l-88 -127h-146l131 189q-133 97 -209.5 245.5t-76.5 319.5zM229 676q0 -129 60 -243t162 -189 l610 876q-136 92 -297 92q-144 0 -267.5 -72t-195.5 -195.5t-72 -268.5zM555 184q100 -43 209 -43q144 0 266.5 72t194 195.5t71.5 267.5q0 210 -143 366z" />
<glyph unicode="&#xd9;" horiz-adv-x="1388" d="M164 504v848h164v-807q0 -212 88.5 -312t277.5 -100t278 100t89 312v807h164v-848q0 -259 -136.5 -391.5t-394.5 -132.5q-257 0 -393.5 132.5t-136.5 391.5zM465 1825h174l117 -303h-166z" />
<glyph unicode="&#xda;" horiz-adv-x="1388" d="M164 504v848h164v-807q0 -212 88.5 -312t277.5 -100t278 100t89 312v807h164v-848q0 -259 -136.5 -391.5t-394.5 -132.5q-257 0 -393.5 132.5t-136.5 391.5zM608 1522l117 303h174l-125 -303h-166z" />
<glyph unicode="&#xdb;" horiz-adv-x="1388" d="M164 504v848h164v-807q0 -212 88.5 -312t277.5 -100t278 100t89 312v807h164v-848q0 -259 -136.5 -391.5t-394.5 -132.5q-257 0 -393.5 132.5t-136.5 391.5zM369 1507l233 342h184l234 -342h-150l-176 236l-176 -236h-149z" />
<glyph unicode="&#xdc;" horiz-adv-x="1388" d="M164 504v848h164v-807q0 -212 88.5 -312t277.5 -100t278 100t89 312v807h164v-848q0 -259 -136.5 -391.5t-394.5 -132.5q-257 0 -393.5 132.5t-136.5 391.5zM379 1636q0 48 34 82.5t83 34.5q47 0 81.5 -35t34.5 -82t-34.5 -81.5t-81.5 -34.5q-49 0 -83 34t-34 82z M776 1636q0 48 34 82.5t83 34.5q47 0 82 -35t35 -82t-35 -81.5t-82 -34.5q-49 0 -83 34t-34 82z" />
<glyph unicode="&#xdd;" horiz-adv-x="1130" d="M0 1352h195l370 -656l371 656h194l-483 -824v-528h-164v528zM479 1522l117 303h174l-125 -303h-166z" />
<glyph unicode="&#xde;" horiz-adv-x="1243" d="M201 0v1352h164v-242h284q250 0 377 -108t127 -312q0 -203 -127.5 -311.5t-376.5 -108.5h-284v-270h-164zM365 424h301q160 0 237.5 65.5t77.5 200.5t-77.5 200.5t-237.5 65.5h-301v-532z" />
<glyph unicode="&#xdf;" horiz-adv-x="1228" d="M170 0v1018q0 88 14.5 159t48.5 133.5t88 104.5t136.5 66t189.5 24q91 0 165 -23.5t121.5 -62t80 -89t46 -102t13.5 -104.5q0 -54 -19 -107.5t-56 -102t-103.5 -79t-151.5 -30.5v-4q82 0 148.5 -24t109.5 -63.5t72 -92t41 -107t12 -111.5q0 -83 -28.5 -158t-83 -134.5 t-142.5 -95t-198 -35.5q-66 0 -126 19.5t-89 47.5l47 133q63 -51 176 -51q136 0 211.5 81t75.5 212q0 142 -92 215.5t-265 73.5h-80v153h80q135 0 214 70t79 180q0 238 -274 238q-165 0 -231 -92.5t-66 -290.5v-969h-164z" />
<glyph unicode="&#xe0;" horiz-adv-x="1132" d="M102 254q0 106 70.5 185t192.5 116q166 52 471 57v64q0 101 -72.5 163t-188.5 62q-119 0 -205.5 -49.5t-127.5 -144.5l-121 88q40 116 158.5 182.5t295.5 66.5q89 0 165 -21.5t134.5 -63t91.5 -109t33 -154.5v-503v-209l-163 -2v151q-55 -70 -159 -111.5t-206 -41.5 q-166 0 -267.5 70.5t-101.5 203.5zM266 254q0 -63 61 -100t152 -37q84 0 165 28t136.5 81.5t55.5 117.5v137q-276 -11 -420 -51q-68 -20 -109 -65.5t-41 -110.5zM348 1536h170l172 -342h-162z" />
<glyph unicode="&#xe1;" horiz-adv-x="1132" d="M102 254q0 106 70.5 185t192.5 116q166 52 471 57v64q0 101 -72.5 163t-188.5 62q-119 0 -205.5 -49.5t-127.5 -144.5l-121 88q40 116 158.5 182.5t295.5 66.5q89 0 165 -21.5t134.5 -63t91.5 -109t33 -154.5v-503v-209l-163 -2v151q-55 -70 -159 -111.5t-206 -41.5 q-166 0 -267.5 70.5t-101.5 203.5zM266 254q0 -63 61 -100t152 -37q84 0 165 28t136.5 81.5t55.5 117.5v137q-276 -11 -420 -51q-68 -20 -109 -65.5t-41 -110.5zM487 1194l172 342h170l-180 -342h-162z" />
<glyph unicode="&#xe2;" horiz-adv-x="1132" d="M102 254q0 106 70.5 185t192.5 116q166 52 471 57v64q0 101 -72.5 163t-188.5 62q-119 0 -205.5 -49.5t-127.5 -144.5l-121 88q40 116 158.5 182.5t295.5 66.5q89 0 165 -21.5t134.5 -63t91.5 -109t33 -154.5v-503v-209l-163 -2v151q-55 -70 -159 -111.5t-206 -41.5 q-166 0 -267.5 70.5t-101.5 203.5zM266 254q0 -63 61 -100t152 -37q84 0 165 28t136.5 81.5t55.5 117.5v137q-276 -11 -420 -51q-68 -20 -109 -65.5t-41 -110.5zM272 1180l230 342h188l230 -342h-170l-154 233l-154 -233h-170z" />
<glyph unicode="&#xe3;" horiz-adv-x="1132" d="M102 254q0 106 70.5 185t192.5 116q166 52 471 57v64q0 101 -72.5 163t-188.5 62q-119 0 -205.5 -49.5t-127.5 -144.5l-121 88q40 116 158.5 182.5t295.5 66.5q89 0 165 -21.5t134.5 -63t91.5 -109t33 -154.5v-503v-209l-163 -2v151q-55 -70 -159 -111.5t-206 -41.5 q-166 0 -267.5 70.5t-101.5 203.5zM223 1192q21 274 232 274q42 0 78 -14.5t61.5 -35t48 -40.5t45.5 -34.5t45 -14.5q44 0 68 35.5t35 105.5h129q-21 -274 -230 -274q-43 0 -79.5 14.5t-61.5 35t-47.5 40.5t-46 34.5t-47.5 14.5q-44 0 -67 -35.5t-34 -105.5h-129zM266 254 q0 -63 61 -100t152 -37q84 0 165 28t136.5 81.5t55.5 117.5v137q-276 -11 -420 -51q-68 -20 -109 -65.5t-41 -110.5z" />
<glyph unicode="&#xe4;" horiz-adv-x="1132" d="M102 254q0 106 70.5 185t192.5 116q166 52 471 57v64q0 101 -72.5 163t-188.5 62q-119 0 -205.5 -49.5t-127.5 -144.5l-121 88q40 116 158.5 182.5t295.5 66.5q89 0 165 -21.5t134.5 -63t91.5 -109t33 -154.5v-503v-209l-163 -2v151q-55 -70 -159 -111.5t-206 -41.5 q-166 0 -267.5 70.5t-101.5 203.5zM266 254q0 -63 61 -100t152 -37q84 0 165 28t136.5 81.5t55.5 117.5v137q-276 -11 -420 -51q-68 -20 -109 -65.5t-41 -110.5zM281 1309q0 48 33.5 82t82.5 34q47 0 82 -34.5t35 -81.5t-35 -82t-82 -35q-49 0 -82.5 34.5t-33.5 82.5z M678 1309q0 48 34 82t83 34q47 0 81.5 -34.5t34.5 -81.5t-34.5 -82t-81.5 -35q-49 0 -83 34.5t-34 82.5z" />
<glyph unicode="&#xe5;" horiz-adv-x="1132" d="M102 254q0 106 70.5 185t192.5 116q166 52 471 57v64q0 101 -72.5 163t-188.5 62q-119 0 -205.5 -49.5t-127.5 -144.5l-121 88q40 116 158.5 182.5t295.5 66.5q89 0 165 -21.5t134.5 -63t91.5 -109t33 -154.5v-503v-209l-163 -2v151q-55 -70 -159 -111.5t-206 -41.5 q-166 0 -267.5 70.5t-101.5 203.5zM266 254q0 -63 61 -100t152 -37q84 0 165 28t136.5 81.5t55.5 117.5v137q-276 -11 -420 -51q-68 -20 -109 -65.5t-41 -110.5zM346 1421q0 100 71.5 171t172.5 71q100 0 170.5 -71t70.5 -171q0 -101 -70.5 -172t-170.5 -71 q-101 0 -172.5 71t-71.5 172zM469 1421q0 -51 35.5 -86t85.5 -35q52 0 88 35.5t33 85.5q0 49 -35.5 84t-85.5 35t-85.5 -35t-35.5 -84z" />
<glyph unicode="&#xe6;" horiz-adv-x="1769" d="M96 254q0 118 98 199.5t283 105.5l305 39v78q0 103 -66 164t-186 61q-211 0 -294 -194l-121 88q44 117 157 183t263 66q121 0 209 -53t133 -155q57 99 147.5 153.5t206.5 54.5q108 0 193 -37.5t138 -103.5t80 -151.5t27 -186.5q0 -56 -8 -114h-731q17 -153 102 -240.5 t211 -87.5q211 0 268 151l138 -71q-63 -112 -156 -167.5t-250 -55.5q-297 0 -395 251q-41 -122 -154 -186.5t-264 -64.5t-242.5 74.5t-91.5 199.5zM266 254q0 -131 193 -131q132 0 227.5 78t95.5 205v63l-262 -41q-136 -22 -195 -62t-59 -112zM934 596h577 q-14 146 -83.5 225.5t-196.5 79.5q-121 0 -199.5 -80.5t-97.5 -224.5z" />
<glyph unicode="&#xe7;" horiz-adv-x="1126" d="M82 508q0 147 71 271t192.5 196t264.5 72q141 0 263 -72t192 -193l-127 -77q-50 90 -136.5 141t-191.5 51q-157 0 -261.5 -111.5t-104.5 -273.5t104 -269.5t262 -107.5q103 0 185.5 43t134.5 127l133 -76q-58 -98 -155 -161t-214 -80q113 -90 113 -209q0 -91 -64.5 -155 t-173.5 -64q-146 0 -225 71l62 113q58 -61 141 -61q50 0 83.5 32.5t33.5 85.5q0 62 -39 104.5t-146 92.5q-173 42 -285 183t-112 327z" />
<glyph unicode="&#xe8;" horiz-adv-x="1169" d="M102 512q0 146 61 266.5t178 193t267 72.5q108 0 199.5 -40.5t152 -107.5t94 -153t33.5 -178q0 -56 -8 -114h-813q20 -150 121.5 -239t233.5 -89q103 0 194 41.5t117 111.5l135 -73q-58 -104 -176.5 -162.5t-269.5 -58.5q-145 0 -262 62t-187 184t-70 284zM268 590h662 q-19 136 -106.5 223.5t-215.5 87.5q-131 0 -223.5 -89t-116.5 -222zM354 1536h170l172 -342h-161z" />
<glyph unicode="&#xe9;" horiz-adv-x="1169" d="M102 512q0 146 61 266.5t178 193t267 72.5q108 0 199.5 -40.5t152 -107.5t94 -153t33.5 -178q0 -56 -8 -114h-813q20 -150 121.5 -239t233.5 -89q103 0 194 41.5t117 111.5l135 -73q-58 -104 -176.5 -162.5t-269.5 -58.5q-145 0 -262 62t-187 184t-70 284zM268 590h662 q-19 136 -106.5 223.5t-215.5 87.5q-131 0 -223.5 -89t-116.5 -222zM494 1194l172 342h170l-181 -342h-161z" />
<glyph unicode="&#xea;" horiz-adv-x="1169" d="M102 512q0 146 61 266.5t178 193t267 72.5q108 0 199.5 -40.5t152 -107.5t94 -153t33.5 -178q0 -56 -8 -114h-813q20 -150 121.5 -239t233.5 -89q103 0 194 41.5t117 111.5l135 -73q-58 -104 -176.5 -162.5t-269.5 -58.5q-145 0 -262 62t-187 184t-70 284zM268 590h662 q-19 136 -106.5 223.5t-215.5 87.5q-131 0 -223.5 -89t-116.5 -222zM279 1180l229 342h188l230 -342h-170l-154 233l-153 -233h-170z" />
<glyph unicode="&#xeb;" horiz-adv-x="1169" d="M102 512q0 146 61 266.5t178 193t267 72.5q108 0 199.5 -40.5t152 -107.5t94 -153t33.5 -178q0 -56 -8 -114h-813q20 -150 121.5 -239t233.5 -89q103 0 194 41.5t117 111.5l135 -73q-58 -104 -176.5 -162.5t-269.5 -58.5q-145 0 -262 62t-187 184t-70 284zM268 590h662 q-19 136 -106.5 223.5t-215.5 87.5q-131 0 -223.5 -89t-116.5 -222zM287 1309q0 48 33.5 82t82.5 34q47 0 82 -34.5t35 -81.5t-35 -82t-82 -35q-49 0 -82.5 34.5t-33.5 82.5zM684 1309q0 48 34 82t83 34q47 0 82 -34.5t35 -81.5t-35 -82t-82 -35q-49 0 -83 34.5t-34 82.5z " />
<glyph unicode="&#xec;" horiz-adv-x="503" d="M4 1536h170l172 -342h-162zM170 0v1024h164v-1024h-164z" />
<glyph unicode="&#xed;" horiz-adv-x="503" d="M164 1194l172 342h170l-180 -342h-162zM170 0v1024h164v-1024h-164z" />
<glyph unicode="&#xee;" horiz-adv-x="503" d="M-72 1180l230 342h188l229 -342h-169l-154 233l-154 -233h-170zM170 0v1024h164v-1024h-164z" />
<glyph unicode="&#xef;" horiz-adv-x="503" d="M-29 1309q0 52 32 84t85 32q54 0 86.5 -31.5t32.5 -84.5t-32.5 -85t-86.5 -32q-52 0 -84.5 32t-32.5 85zM170 0v1024h164v-1024h-164zM297 1309q0 53 32.5 84.5t86.5 31.5q52 0 84 -31.5t32 -84.5t-32 -85t-84 -32q-54 0 -86.5 32t-32.5 85z" />
<glyph unicode="&#xf0;" horiz-adv-x="1228" d="M106 487q0 231 135.5 368.5t344.5 137.5q231 0 346 -143q-51 222 -166 364l-381 -98l-20 101l331 73q-115 109 -297 205h228q129 -77 215 -170l225 64l29 -103l-189 -39q191 -255 191 -657q0 -135 -31 -245.5t-92.5 -192.5t-159.5 -127t-225 -45q-224 0 -354 135 t-130 372zM276 487q0 -171 86.5 -267.5t235.5 -96.5q155 0 247.5 106t92.5 258q0 169 -88 266t-242 97q-155 0 -243.5 -97t-88.5 -266z" />
<glyph unicode="&#xf1;" horiz-adv-x="1163" d="M133 0v1024h143l11 -160q52 92 142 136t202 44q174 0 286.5 -100t112.5 -289v-655h-164v598q0 160 -68.5 231.5t-183.5 71.5q-59 0 -113 -19.5t-101 -59.5t-75 -111.5t-28 -165.5v-545h-164zM221 1192q21 274 232 274q42 0 78 -14.5t61.5 -35t48 -40.5t45.5 -34.5 t45 -14.5q44 0 68 35.5t35 105.5h129q-21 -274 -230 -274q-43 0 -79.5 14.5t-61.5 35t-47.5 40.5t-46 34.5t-47.5 14.5q-44 0 -67 -35.5t-34 -105.5h-129z" />
<glyph unicode="&#xf2;" horiz-adv-x="1187" d="M61 508q0 147 71.5 271t194.5 196t267 72t266.5 -72t194 -196t71.5 -271q0 -146 -71.5 -266.5t-193.5 -189t-267 -68.5t-267 68.5t-194 189t-72 266.5zM225 512q0 -158 106.5 -264.5t262.5 -106.5t262.5 106.5t106.5 264.5q0 159 -107 271t-262 112t-262 -112t-107 -271z M344 1536h170l172 -342h-162z" />
<glyph unicode="&#xf3;" horiz-adv-x="1187" d="M61 508q0 147 71.5 271t194.5 196t267 72t266.5 -72t194 -196t71.5 -271q0 -146 -71.5 -266.5t-193.5 -189t-267 -68.5t-267 68.5t-194 189t-72 266.5zM225 512q0 -158 106.5 -264.5t262.5 -106.5t262.5 106.5t106.5 264.5q0 159 -107 271t-262 112t-262 -112t-107 -271z M483 1194l172 342h170l-180 -342h-162z" />
<glyph unicode="&#xf4;" horiz-adv-x="1187" d="M61 508q0 147 71.5 271t194.5 196t267 72t266.5 -72t194 -196t71.5 -271q0 -146 -71.5 -266.5t-193.5 -189t-267 -68.5t-267 68.5t-194 189t-72 266.5zM225 512q0 -158 106.5 -264.5t262.5 -106.5t262.5 106.5t106.5 264.5q0 159 -107 271t-262 112t-262 -112t-107 -271z M268 1180l230 342h188l229 -342h-170l-153 233l-154 -233h-170z" />
<glyph unicode="&#xf5;" horiz-adv-x="1187" d="M61 508q0 147 71.5 271t194.5 196t267 72t266.5 -72t194 -196t71.5 -271q0 -146 -71.5 -266.5t-193.5 -189t-267 -68.5t-267 68.5t-194 189t-72 266.5zM219 1192q21 274 232 274q42 0 78 -14.5t61.5 -35t48 -40.5t45.5 -34.5t45 -14.5q44 0 67.5 35.5t34.5 105.5h130 q-21 -274 -230 -274q-43 0 -79.5 14.5t-61.5 35t-47.5 40.5t-46 34.5t-47.5 14.5q-44 0 -67 -35.5t-34 -105.5h-129zM225 512q0 -158 106.5 -264.5t262.5 -106.5t262.5 106.5t106.5 264.5q0 159 -107 271t-262 112t-262 -112t-107 -271z" />
<glyph unicode="&#xf6;" horiz-adv-x="1187" d="M61 508q0 147 71.5 271t194.5 196t267 72t266.5 -72t194 -196t71.5 -271q0 -146 -71.5 -266.5t-193.5 -189t-267 -68.5t-267 68.5t-194 189t-72 266.5zM225 512q0 -158 106.5 -264.5t262.5 -106.5t262.5 106.5t106.5 264.5q0 159 -107 271t-262 112t-262 -112t-107 -271z M276 1309q0 48 34 82t83 34q47 0 82 -34.5t35 -81.5t-35 -82t-82 -35q-49 0 -83 34.5t-34 82.5zM674 1309q0 48 34 82t83 34q47 0 81.5 -34.5t34.5 -81.5t-34.5 -82t-81.5 -35q-49 0 -83 34.5t-34 82.5z" />
<glyph unicode="&#xf7;" d="M100 571v154h996v-154h-996zM463 248q0 55 39.5 94t95.5 39t95.5 -39t39.5 -94q0 -57 -39.5 -96t-95.5 -39t-95.5 39t-39.5 96zM463 1049q0 55 39.5 94t95.5 39t95.5 -39t39.5 -94q0 -57 -39.5 -96.5t-95.5 -39.5t-95.5 39.5t-39.5 96.5z" />
<glyph unicode="&#xf8;" horiz-adv-x="1206" d="M104 -76l142 189q-140 143 -140 399q0 249 132 390.5t364 141.5q171 0 289 -77l80 104h137l-135 -176q125 -140 125 -383q0 -249 -132 -390.5t-364 -141.5q-156 0 -268 65l-92 -121h-138zM270 512q0 -163 74 -270h2l74 100l379 502q-80 59 -197 59q-155 0 -243.5 -104 t-88.5 -287zM426 168q71 -47 176 -47q155 0 243.5 104t88.5 287q0 150 -62 250h-2l-65 -90z" />
<glyph unicode="&#xf9;" horiz-adv-x="1142" d="M113 354v670h163v-627q0 -150 62 -212t180 -62q141 0 234.5 86.5t93.5 257.5v557h164v-1024h-158v147q-106 -167 -363 -167q-79 0 -145 21t-118.5 64t-82.5 117t-30 172zM315 1536h170l172 -342h-161z" />
<glyph unicode="&#xfa;" horiz-adv-x="1142" d="M113 354v670h163v-627q0 -150 62 -212t180 -62q141 0 234.5 86.5t93.5 257.5v557h164v-1024h-158v147q-106 -167 -363 -167q-79 0 -145 21t-118.5 64t-82.5 117t-30 172zM455 1194l172 342h170l-181 -342h-161z" />
<glyph unicode="&#xfb;" horiz-adv-x="1142" d="M113 354v670h163v-627q0 -150 62 -212t180 -62q141 0 234.5 86.5t93.5 257.5v557h164v-1024h-158v147q-106 -167 -363 -167q-79 0 -145 21t-118.5 64t-82.5 117t-30 172zM240 1180l229 342h188l230 -342h-170l-154 233l-153 -233h-170z" />
<glyph unicode="&#xfc;" horiz-adv-x="1142" d="M113 354v670h163v-627q0 -150 62 -212t180 -62q141 0 234.5 86.5t93.5 257.5v557h164v-1024h-158v147q-106 -167 -363 -167q-79 0 -145 21t-118.5 64t-82.5 117t-30 172zM248 1309q0 48 34 82t83 34q47 0 81.5 -34.5t34.5 -81.5t-34.5 -82t-81.5 -35q-49 0 -83 34.5 t-34 82.5zM645 1309q0 48 34 82t83 34q47 0 82 -34.5t35 -81.5t-35 -82t-82 -35q-49 0 -83 34.5t-34 82.5z" />
<glyph unicode="&#xfd;" horiz-adv-x="1079" d="M29 -354l57 139q58 -82 166 -82q60 0 105 35.5t81 130.5l54 133l-429 1022h187l256 -668l63 -182l74 203l240 647h176l-481 -1196q-59 -148 -133.5 -208t-190.5 -60q-77 0 -129.5 20t-95.5 66zM449 1194l172 342h170l-181 -342h-161z" />
<glyph unicode="&#xfe;" horiz-adv-x="1249" d="M170 -430v1925h164v-612q53 75 140.5 118t199.5 43q215 0 341 -141.5t126 -390.5t-126 -390.5t-341 -141.5q-112 0 -199.5 43t-140.5 118v-571h-164zM334 500q0 -173 87 -275t234 -102q150 0 236 105t86 284t-86 284t-236 105q-147 0 -234 -102t-87 -275v-24z" />
<glyph unicode="&#xff;" horiz-adv-x="1079" d="M29 -354l57 139q58 -82 166 -82q60 0 105 35.5t81 130.5l54 133l-429 1022h187l256 -668l63 -182l74 203l240 647h176l-481 -1196q-59 -148 -133.5 -208t-190.5 -60q-77 0 -129.5 20t-95.5 66zM242 1309q0 48 33.5 82t82.5 34q47 0 82 -34.5t35 -81.5t-35 -82t-82 -35 q-49 0 -82.5 34.5t-33.5 82.5zM639 1309q0 48 34 82t83 34q47 0 81.5 -34.5t34.5 -81.5t-34.5 -82t-81.5 -35q-49 0 -83 34.5t-34 82.5z" />
<glyph unicode="&#x152;" horiz-adv-x="2170" d="M119 676q0 323 167.5 509.5t463.5 186.5q136 0 246 -56.5t184 -162.5v199h874v-154h-725v-436h551v-154h-551v-454h756v-154h-905v203q-75 -108 -188 -165.5t-251 -57.5q-288 0 -455 187t-167 509zM291 676q0 -256 120 -399.5t339 -143.5q194 0 312 145.5t118 397.5 t-118 397.5t-312 145.5q-219 0 -339 -143.5t-120 -399.5z" />
<glyph unicode="&#x153;" horiz-adv-x="1984" d="M106 512q0 249 133 390.5t369 141.5q145 0 251 -59t165 -170q54 111 156 170t243 59q215 0 337 -136.5t122 -342.5q0 -56 -8 -114h-772q15 -155 103.5 -241.5t230.5 -86.5q112 0 186 38.5t102 112.5l138 -71q-61 -109 -163.5 -166t-262.5 -57q-144 0 -248.5 60 t-163.5 173q-57 -113 -163 -173t-253 -60q-236 0 -369 141.5t-133 390.5zM276 512q0 -183 88.5 -286t243.5 -103t243.5 103t88.5 286t-88.5 286t-243.5 103t-243.5 -103t-88.5 -286zM1104 596h620q-18 143 -95.5 224t-205.5 81q-136 0 -218 -79.5t-101 -225.5z" />
<glyph unicode="&#x178;" horiz-adv-x="1130" d="M0 1352h195l370 -656l371 656h194l-483 -824v-528h-164v528zM250 1636q0 48 34 82.5t83 34.5q47 0 81.5 -35t34.5 -82t-34.5 -81.5t-81.5 -34.5q-49 0 -83 34t-34 82zM647 1636q0 48 34 82.5t83 34.5q47 0 82 -35t35 -82t-35 -81.5t-82 -34.5q-49 0 -83 34t-34 82z" />
<glyph unicode="&#x2c6;" horiz-adv-x="983" d="M168 1180l229 342h189l229 -342h-170l-153 233l-154 -233h-170z" />
<glyph unicode="&#x2dc;" horiz-adv-x="983" d="M121 1192q21 274 231 274q42 0 78.5 -14.5t62 -35t47.5 -40.5t45.5 -34.5t45.5 -14.5q44 0 67.5 35.5t34.5 105.5h129q-21 -274 -229 -274q-43 0 -79.5 14.5t-62 35t-47.5 40.5t-46 34.5t-48 14.5q-43 0 -66 -35t-34 -106h-129z" />
<glyph unicode="&#x2000;" horiz-adv-x="924" />
<glyph unicode="&#x2001;" horiz-adv-x="1849" />
<glyph unicode="&#x2002;" horiz-adv-x="924" />
<glyph unicode="&#x2003;" horiz-adv-x="1849" />
<glyph unicode="&#x2004;" horiz-adv-x="616" />
<glyph unicode="&#x2005;" horiz-adv-x="462" />
<glyph unicode="&#x2006;" horiz-adv-x="308" />
<glyph unicode="&#x2007;" horiz-adv-x="308" />
<glyph unicode="&#x2008;" horiz-adv-x="231" />
<glyph unicode="&#x2009;" horiz-adv-x="369" />
<glyph unicode="&#x200a;" horiz-adv-x="102" />
<glyph unicode="&#x2010;" horiz-adv-x="1003" d="M164 451v170h676v-170h-676z" />
<glyph unicode="&#x2011;" horiz-adv-x="1003" d="M164 451v170h676v-170h-676z" />
<glyph unicode="&#x2012;" horiz-adv-x="1003" d="M164 451v170h676v-170h-676z" />
<glyph unicode="&#x2013;" horiz-adv-x="1318" d="M147 459v153h1024v-153h-1024z" />
<glyph unicode="&#x2014;" horiz-adv-x="2035" d="M147 459v153h1741v-153h-1741z" />
<glyph unicode="&#x2018;" horiz-adv-x="481" d="M102 1028q-12 138 74 238t232 133l43 -107q-89 -28 -136 -61t-67 -76q54 -3 91.5 -41.5t37.5 -93.5t-39.5 -94t-95.5 -39q-60 0 -97 37.5t-43 103.5z" />
<glyph unicode="&#x2019;" horiz-adv-x="481" d="M39 1030q89 28 136 61t67 76q-54 3 -91.5 42t-37.5 94t39.5 94t95.5 39q60 0 96.5 -38t42.5 -104q12 -138 -73.5 -237.5t-231.5 -132.5z" />
<glyph unicode="&#x201a;" horiz-adv-x="501" d="M39 -158q164 52 203 138q-54 3 -91.5 41.5t-37.5 93.5t39.5 94t95.5 39q60 0 96.5 -38t42.5 -104q12 -138 -73.5 -237.5t-231.5 -132.5z" />
<glyph unicode="&#x201c;" horiz-adv-x="866" d="M102 1028q-12 138 74 238t232 133l43 -107q-89 -28 -136 -61t-67 -76q54 -3 91.5 -41.5t37.5 -93.5t-39.5 -94t-95.5 -39q-60 0 -97 37.5t-43 103.5zM487 1028q-12 138 74 238t232 133l43 -107q-89 -28 -136 -61t-67 -76q54 -3 91.5 -41.5t37.5 -93.5t-39.5 -94 t-95.5 -39q-60 0 -97 37.5t-43 103.5z" />
<glyph unicode="&#x201d;" horiz-adv-x="866" d="M39 1030q89 28 136 61t67 76q-54 3 -91.5 42t-37.5 94t39.5 94t95.5 39q60 0 96.5 -38t42.5 -104q12 -138 -73.5 -237.5t-231.5 -132.5zM424 1030q89 28 136 61t67 76q-54 3 -91.5 42t-37.5 94t39.5 94t95.5 39q60 0 96.5 -38t42.5 -104q12 -138 -73.5 -237.5 t-231.5 -132.5z" />
<glyph unicode="&#x201e;" horiz-adv-x="886" d="M39 -158q164 52 203 138q-54 3 -91.5 41.5t-37.5 93.5t39.5 94t95.5 39q60 0 96.5 -38t42.5 -104q12 -138 -73.5 -237.5t-231.5 -132.5zM424 -158q164 52 203 138q-54 3 -91.5 41.5t-37.5 93.5t39.5 94t95.5 39q60 0 96.5 -38t42.5 -104q12 -138 -73.5 -237.5 t-231.5 -132.5z" />
<glyph unicode="&#x2022;" horiz-adv-x="839" d="M172 692q0 103 73.5 175.5t176.5 72.5t176.5 -72.5t73.5 -175.5q0 -104 -73.5 -177t-176.5 -73t-176.5 73t-73.5 177z" />
<glyph unicode="&#x2026;" horiz-adv-x="1720" d="M131 115q0 55 39.5 94t95.5 39t95.5 -39t39.5 -94q0 -57 -39.5 -96t-95.5 -39t-95.5 39t-39.5 96zM725 115q0 55 39.5 94t95.5 39t95.5 -39t39.5 -94q0 -57 -39.5 -96t-95.5 -39t-95.5 39t-39.5 96zM1319 115q0 55 39.5 94t95.5 39t95.5 -39t39.5 -94q0 -57 -39.5 -96 t-95.5 -39t-95.5 39t-39.5 96z" />
<glyph unicode="&#x202f;" horiz-adv-x="369" />
<glyph unicode="&#x2039;" horiz-adv-x="606" d="M84 543l258 401h178l-262 -401l262 -402h-178z" />
<glyph unicode="&#x203a;" horiz-adv-x="606" d="M86 141l262 402l-262 401h178l258 -401l-258 -402h-178z" />
<glyph unicode="&#x205f;" horiz-adv-x="462" />
<glyph unicode="&#x20ac;" horiz-adv-x="1392" d="M-88 438l55 133h113q-8 47 -8 107q0 24 4 70h-164l55 133h135q67 219 255 360t423 141q163 0 306.5 -69.5t242.5 -190.5l-125 -102q-77 94 -188 148.5t-236 54.5q-168 0 -306 -94.5t-200 -247.5h662l-41 -133h-657q-5 -58 -5 -72q0 -41 11 -105h610l-41 -133h-524 q69 -139 200.5 -223t290.5 -84q125 0 236.5 55t187.5 150l127 -103q-100 -124 -244 -194t-307 -70q-226 0 -408.5 131t-258.5 338h-201z" />
<glyph unicode="&#x2122;" horiz-adv-x="1675" d="M90 1241v111h555v-111h-205v-565h-143v565h-207zM774 676v676h180l140 -369l47 -131h4l45 131l141 369h178v-676h-141v323l14 179h-2l-18 -56l-168 -446h-102l-170 446l-19 56h-2l14 -179v-323h-141z" />
<glyph unicode="&#x25fc;" horiz-adv-x="1024" d="M0 0v1024h1024v-1024h-1024z" />
</font>
</defs>
</svg>
