<?xml version="1.0" standalone="no"?>
<!DOCTYPE svg PUBLIC "-//W3C//DTD SVG 1.1//EN" "http://www.w3.org/Graphics/SVG/1.1/DTD/svg11.dtd" >
<svg xmlns="http://www.w3.org/2000/svg" xmlns:xlink="http://www.w3.org/1999/xlink" version="1.1">
<metadata></metadata>
<defs>
<font id="human_sansmedium" horiz-adv-x="1337" >
<font-face units-per-em="2048" ascent="1556" descent="-492" />
<missing-glyph horiz-adv-x="526" />
<glyph unicode="&#xfb01;" horiz-adv-x="1415" d="M51 825v189h187v147q0 161 99 248.5t271 87.5q124 0 189 -41v-192q-77 30 -144 30q-86 0 -132 -40t-46 -117v-123h328v-189h-320v-825h-245v825h-187zM985 1339q0 65 45.5 110.5t110.5 45.5q64 0 109.5 -45.5t45.5 -110.5q0 -63 -45.5 -109t-109.5 -46t-110 46t-46 109z M1018 0v1024h246v-1024h-246z" />
<glyph unicode="&#xfb02;" horiz-adv-x="1378" d="M51 825v189h187v147q0 161 99 248.5t271 87.5q124 0 189 -41v-192q-77 30 -144 30q-86 0 -132 -40t-46 -117v-123h328v-189h-320v-825h-245v825h-187zM999 0v1479h246v-1479h-246z" />
<glyph horiz-adv-x="0" />
<glyph horiz-adv-x="682" />
<glyph unicode=" "  horiz-adv-x="526" />
<glyph unicode="&#x09;" horiz-adv-x="526" />
<glyph unicode="&#xa0;" horiz-adv-x="526" />
<glyph unicode="!" horiz-adv-x="552" d="M117 139q0 67 46.5 113.5t112.5 46.5q68 0 115 -46.5t47 -113.5t-47 -113t-115 -46q-66 0 -112.5 46t-46.5 113zM147 1352h259l-25 -918h-207z" />
<glyph unicode="&#x22;" horiz-adv-x="835" d="M135 868v535h230l-56 -535h-174zM508 868v535h229l-55 -535h-174z" />
<glyph unicode="#" horiz-adv-x="1325" d="M31 358v162h264l51 320h-225v161h252l57 351h184l-57 -351h305l58 351h184l-57 -351h245v-161h-272l-53 -320h235v-162h-262l-59 -358h-183l60 358h-307l-60 -358h-182l59 358h-237zM477 520h307l52 320h-306z" />
<glyph unicode="$" horiz-adv-x="1165" d="M86 332q0 56 6 100h205q-4 -29 -4 -74q0 -56 54.5 -114t148.5 -78v428q-206 57 -299 149.5t-93 227.5q0 165 106 272t286 129v133h176v-133q167 -27 268 -139.5t100 -286.5h-211q-3 186 -157 228v-414q214 -58 307.5 -153t93.5 -236q0 -164 -108 -270.5t-293 -129.5v-129 h-176v127q-184 21 -297 128t-113 235zM332 983q0 -60 37.5 -100t126.5 -72v365q-77 -16 -120.5 -64.5t-43.5 -128.5zM672 166q87 19 132.5 69t45.5 123q0 58 -41.5 103t-136.5 82v-377z" />
<glyph unicode="%" horiz-adv-x="1837" d="M66 995q0 157 111 268t269 111q155 0 266 -111t111 -268q0 -158 -110.5 -269.5t-266.5 -111.5q-158 0 -269 111.5t-111 269.5zM242 995q0 -85 59.5 -144.5t144.5 -59.5t145 59.5t60 144.5t-60 145t-145 60t-144.5 -60t-59.5 -145zM371 0l895 1352h204l-895 -1352h-204z M1012 358q0 157 112 269t269 112t268 -112t111 -269t-111 -267.5t-268 -110.5t-269 111t-112 267zM1188 358q0 -85 60 -144.5t145 -59.5t144.5 59.5t59.5 144.5t-59.5 145t-144.5 60t-145 -60t-60 -145z" />
<glyph unicode="&#x26;" horiz-adv-x="1402" d="M96 469q0 133 67.5 245.5t180.5 176.5q-41 94 -41 223t92.5 219t229.5 90q144 0 236.5 -94t92.5 -225h-196q0 51 -36 86t-87 35t-86 -35t-35 -86q0 -32 1 -48.5t14.5 -62t41.5 -86.5q164 -249 297 -436v313h377v-200h-170v-115q0 -111 -49 -215l37 -49h237v-205h-321v2 l-10 -2l-70 92q-138 -112 -311 -112q-203 0 -347.5 143t-144.5 346zM305 469q0 -115 84.5 -199t198.5 -84q102 0 186 74q-186 258 -321 457q-71 -41 -109.5 -107t-38.5 -141z" />
<glyph unicode="'" horiz-adv-x="462" d="M135 868v535h230l-56 -535h-174z" />
<glyph unicode="(" horiz-adv-x="706" d="M115 623q0 281 105.5 531.5t295.5 438.5l148 -151q-160 -160 -248 -370.5t-88 -448.5q0 -236 89.5 -449.5t250.5 -374.5l-148 -153q-191 191 -298 443.5t-107 533.5z" />
<glyph unicode=")" horiz-adv-x="706" d="M39 -201q161 161 250.5 374.5t89.5 449.5q0 238 -88 448.5t-248 370.5l147 151q190 -188 296 -438.5t106 -531.5q0 -280 -107.5 -533t-298.5 -444z" />
<glyph unicode="*" horiz-adv-x="1157" d="M80 1067l55 174l354 -119l-4 373h185l-4 -371l354 117l55 -174l-354 -113l221 -299l-147 -108l-215 301l-218 -301l-149 108l221 301z" />
<glyph unicode="+" horiz-adv-x="1206" d="M98 557v197h402v424h209v-424h399v-197h-399v-424h-209v424h-402z" />
<glyph unicode="," horiz-adv-x="536" d="M41 -141q149 42 199 121q-56 9 -95 54t-39 103q0 66 47.5 113t112.5 47q70 0 114.5 -46.5t49.5 -121.5q11 -147 -82.5 -262t-265.5 -146z" />
<glyph unicode="-" horiz-adv-x="1030" d="M162 430v221h708v-221h-708z" />
<glyph unicode="." horiz-adv-x="536" d="M106 137q0 66 47.5 113t112.5 47q66 0 114 -47t48 -113t-48 -113t-114 -47q-65 0 -112.5 47t-47.5 113z" />
<glyph unicode="/" horiz-adv-x="989" d="M27 -143l704 1622h232l-705 -1622h-231z" />
<glyph unicode="0" horiz-adv-x="1241" d="M102 676q0 353 121 524.5t398 171.5t397.5 -171.5t120.5 -524.5t-120.5 -524.5t-397.5 -171.5t-398 171.5t-121 524.5zM336 676q0 -258 63.5 -376t221.5 -118t222 118t64 376q0 257 -64 375t-222 118t-221.5 -117.5t-63.5 -375.5z" />
<glyph unicode="1" horiz-adv-x="796" d="M51 1137l357 215h219v-1352h-242v1004l6 81l-270 -147z" />
<glyph unicode="2" horiz-adv-x="1075" d="M72 944q17 198 147.5 313t339.5 115q113 0 200.5 -34.5t139.5 -93.5t78.5 -132.5t26.5 -157.5q0 -50 -8.5 -96.5t-30 -94t-43.5 -87.5t-63.5 -90t-75 -87.5t-93 -94.5t-102 -96.5t-117.5 -106.5l6 2q61 2 191 2h333v-205h-886v166q72 68 164.5 152.5t146 133.5t117 110 t98 103t67 90.5t45.5 93.5t13 93q0 98 -55.5 159.5t-161.5 61.5q-119 0 -189 -79.5t-79 -225.5z" />
<glyph unicode="3" horiz-adv-x="1165" d="M100 309l207 92q25 -108 84.5 -161.5t175.5 -53.5q120 0 185 56.5t63 158.5q0 99 -64.5 142t-197.5 43h-150v184h144q236 0 239 193q2 97 -51.5 149.5t-159.5 52.5q-198 0 -241 -182l-211 74q42 156 164.5 235.5t300.5 79.5q209 0 324.5 -103.5t115.5 -267.5 q0 -137 -74.5 -227t-162.5 -90v-4q109 0 187.5 -86t78.5 -223q0 -175 -134.5 -283t-361.5 -108q-378 0 -461 329z" />
<glyph unicode="4" horiz-adv-x="1034" d="M49 328v147l522 877h318v-830h80v-194h-80v-328h-219v328h-621zM311 522h359l2 434l2 164z" />
<glyph unicode="5" horiz-adv-x="1058" d="M92 696l101 656h690v-207h-508l-37 -244q82 31 170 31q201 0 342 -140t141 -339q0 -131 -64.5 -242.5t-175.5 -176.5t-243 -65q-131 0 -241 65.5t-173 174.5l185 98q36 -59 96 -93t133 -34q115 0 194.5 79.5t79.5 193.5t-79.5 194t-194.5 80q-75 0 -139 -36.5t-93 -96.5z " />
<glyph unicode="6" horiz-adv-x="1099" d="M74 453q0 115 51 217l317 684h244l-194 -422q46 4 65 4q132 0 243 -65t175.5 -176t64.5 -242t-64.5 -242.5t-175.5 -176.5t-243 -65q-131 0 -242 65t-176 176.5t-65 242.5zM285 453q0 -114 79 -193.5t193 -79.5q115 0 194.5 79.5t79.5 193.5t-79.5 194t-194.5 80 q-114 0 -193 -80t-79 -194z" />
<glyph unicode="7" horiz-adv-x="1026" d="M55 1133v219h936l-581 -1352h-244l496 1133h-607z" />
<glyph unicode="8" horiz-adv-x="1058" d="M66 352q0 122 67.5 214.5t179.5 133.5v2q-89 40 -142.5 126t-53.5 190q0 69 25 131t74 111.5t130 78.5t184 29t183.5 -29t129.5 -79t74 -112t25 -132q0 -102 -51.5 -187t-145.5 -127v-2q117 -42 182.5 -135t65.5 -213q0 -77 -28.5 -143.5t-84 -118t-145.5 -81t-205 -29.5 q-226 0 -345 105.5t-119 266.5zM289 362q0 -97 67.5 -153.5t173.5 -56.5q105 0 172.5 56.5t67.5 153.5q0 98 -68.5 158t-171.5 60t-172 -60t-69 -158zM336 1006q0 -88 56 -140.5t138 -52.5q81 0 137 52.5t56 140.5q0 85 -55.5 136.5t-137.5 51.5q-84 0 -139 -51t-55 -137z " />
<glyph unicode="9" horiz-adv-x="1073" d="M53 901q0 131 64.5 242t176 176t243.5 65t243 -65t175.5 -176t64.5 -242q0 -106 -43 -203l-326 -698h-248l195 420q-40 -4 -61 -4q-132 0 -243.5 65t-176 176.5t-64.5 243.5zM262 899q0 -113 80.5 -192.5t194.5 -79.5t193 79.5t79 192.5q0 115 -79 195t-193 80 t-194.5 -80t-80.5 -195z" />
<glyph unicode=":" horiz-adv-x="581" d="M129 137q0 66 47.5 113t112.5 47q66 0 114 -47t48 -113t-48 -113t-114 -47q-65 0 -112.5 47t-47.5 113zM129 889q0 66 47.5 113t112.5 47q66 0 114 -47t48 -113t-48 -113t-114 -47q-65 0 -112.5 47t-47.5 113z" />
<glyph unicode=";" horiz-adv-x="581" d="M66 -141q148 41 198 121q-56 9 -94.5 54t-38.5 103q0 66 47.5 113t112.5 47q70 0 114.5 -46.5t49.5 -121.5q11 -147 -83 -262t-266 -146zM139 889q0 66 48 113t114 47q65 0 112.5 -47t47.5 -113t-47.5 -113t-112.5 -47q-66 0 -114 47t-48 113z" />
<glyph unicode="&#x3c;" horiz-adv-x="1206" d="M123 492v239l987 453v-236l-772 -338l772 -338v-235z" />
<glyph unicode="=" horiz-adv-x="1206" d="M117 326v190h973v-190h-973zM117 750v192h973v-192h-973z" />
<glyph unicode="&#x3e;" horiz-adv-x="1206" d="M96 37v235l772 338l-772 338v236l987 -453v-239z" />
<glyph unicode="?" horiz-adv-x="1093" d="M129 1147q55 114 162.5 182t238.5 68q121 0 224 -59t163 -160.5t60 -221.5q0 -159 -100.5 -280t-253.5 -152v-151h-199v325l100 9q107 9 180.5 78.5t73.5 168.5q0 103 -72.5 175.5t-175.5 72.5q-73 0 -133 -38.5t-90 -102.5zM367 133q0 64 46 110t109 46q66 0 113 -46 t47 -110t-47 -110t-113 -46q-63 0 -109 46t-46 110z" />
<glyph unicode="@" horiz-adv-x="1951" d="M104 479q0 188 65.5 350t182.5 278.5t286.5 182.5t369.5 66q142 0 266.5 -32.5t229.5 -101t180 -169t117 -244t42 -317.5q0 -238 -82 -372t-250 -134q-140 0 -196 106q-58 -75 -150 -118.5t-204 -43.5q-100 0 -191 38t-159 105.5t-108 166t-40 213.5t40.5 214.5 t108.5 167t159 106t190 38.5q100 0 187.5 -40t147.5 -108v97h226v-688q0 -101 43 -101q53 0 92 113.5t39 273.5q0 167 -51.5 298.5t-144.5 215.5t-220 128t-281 44q-227 0 -396 -92.5t-258 -258t-89 -382.5q0 -218 90 -386.5t255.5 -261.5t379.5 -93q192 0 348 78l55 -133 q-180 -89 -399 -89q-189 0 -352.5 66.5t-279.5 183.5t-182.5 281.5t-66.5 353.5zM686 455q0 -137 89 -229.5t214 -92.5q112 0 199 68.5t108 179.5v147q-21 110 -107.5 177t-199.5 67q-125 0 -214 -90.5t-89 -226.5z" />
<glyph unicode="A" d="M25 0l497 1352h295l496 -1352h-252l-96 274h-596l-97 -274h-247zM442 485h449l-162 461l-61 199h-4l-58 -195z" />
<glyph unicode="B" horiz-adv-x="1335" d="M174 0v1352h559q237 0 355 -96t118 -263q0 -128 -65 -206.5t-183 -100.5v-2q138 -24 210.5 -108.5t72.5 -210.5q0 -168 -128 -266.5t-365 -98.5h-574zM416 197h325q244 0 244 190q0 191 -244 191h-325v-381zM416 776h291q243 0 243 189q0 186 -243 186h-291v-375z" />
<glyph unicode="C" horiz-adv-x="1396" d="M76 676q0 188 93 348.5t252.5 254t346.5 93.5q169 0 315 -76.5t242 -208.5l-190 -131q-66 85 -161 133t-206 48q-189 0 -323 -135t-134 -328q0 -124 61 -230t166.5 -168.5t229.5 -62.5q111 0 207 49t160 135l192 -131q-96 -133 -243 -211t-316 -78q-140 0 -268.5 55.5 t-221 149t-147.5 223t-55 271.5z" />
<glyph unicode="D" horiz-adv-x="1478" d="M174 0v1352h545q318 0 492.5 -176t174.5 -500t-174.5 -500t-492.5 -176h-545zM422 203h291q202 0 313 126t111 347t-111 347t-313 126h-291v-946z" />
<glyph unicode="E" horiz-adv-x="1286" d="M174 0v1352h995v-207h-747v-375h653v-203h-653v-360h776v-207h-1024z" />
<glyph unicode="F" horiz-adv-x="1210" d="M162 0v1352h993v-222h-745v-389h651v-223h-651v-518h-248z" />
<glyph unicode="G" horiz-adv-x="1521" d="M68 676q0 143 54.5 272t147.5 222.5t221.5 148.5t270.5 55q166 0 311.5 -72.5t243.5 -199.5l-193 -139q-64 83 -159.5 130.5t-202.5 47.5q-190 0 -322.5 -136t-132.5 -331q0 -192 132.5 -327.5t322.5 -135.5q136 0 249 71.5t171 188.5h-342v209h624v-43 q-10 -183 -106.5 -335t-254 -238.5t-341.5 -86.5q-142 0 -270.5 54.5t-221.5 148t-147.5 223t-54.5 273.5z" />
<glyph unicode="H" horiz-adv-x="1480" d="M180 0v1352h248v-574h625v574h247v-1352h-247v547h-625v-547h-248z" />
<glyph unicode="I" horiz-adv-x="595" d="M172 0v1352h252v-1352h-252z" />
<glyph unicode="J" horiz-adv-x="1155" d="M63 530h242q0 -69 2 -106q10 -111 69 -173.5t148 -62.5q106 0 168.5 58t77.5 168q6 64 6 135v803h248v-871q0 -238 -134.5 -369.5t-361.5 -131.5q-208 0 -329 120.5t-133 341.5q-3 46 -3 88z" />
<glyph unicode="K" horiz-adv-x="1353" d="M174 0v1352h248v-660l592 660h293l-500 -553l514 -799h-287l-405 637l-207 -227v-410h-248z" />
<glyph unicode="L" horiz-adv-x="1185" d="M162 0v1352h248v-1139h731v-213h-979z" />
<glyph unicode="M" horiz-adv-x="1730" d="M156 0v1352h362l258 -762l92 -316h4l93 314l258 764h352v-1352h-223v748l14 362h-4l-395 -1110h-203l-395 1110h-4l16 -362v-748h-225z" />
<glyph unicode="N" horiz-adv-x="1480" d="M174 0v1352h287l500 -820l124 -235h5l-9 227v828h224v-1352h-285l-502 821l-125 238h-2l8 -232v-827h-225z" />
<glyph unicode="O" horiz-adv-x="1527" d="M68 676q0 188 93.5 348.5t254 254t348.5 93.5t348 -93.5t253 -254t93 -348.5q0 -189 -93 -350t-253 -255t-348 -94q-141 0 -270 55.5t-222 149t-148.5 223t-55.5 271.5zM301 674q0 -189 136.5 -326t326.5 -137t326.5 137t136.5 326q0 192 -136.5 329.5t-326.5 137.5 t-326.5 -137.5t-136.5 -329.5z" />
<glyph unicode="P" horiz-adv-x="1314" d="M174 0v1352h571q220 0 363 -133.5t143 -329.5q0 -96 -37.5 -183t-103.5 -151.5t-161 -102.5t-204 -38h-325v-414h-246zM420 614h299q125 0 202.5 80t77.5 191t-77 187.5t-203 76.5h-299v-535z" />
<glyph unicode="Q" horiz-adv-x="1556" d="M68 676q0 188 93.5 348.5t254 254t348.5 93.5t348 -93.5t253 -254t93 -348.5q0 -137 -49.5 -260.5t-140.5 -220.5l168 -236l-191 -135l-166 229q-146 -76 -315 -76q-141 0 -270 55.5t-222 149t-148.5 223t-55.5 271.5zM301 674q0 -189 136.5 -326t326.5 -137t326.5 137 t136.5 326q0 192 -136.5 329.5t-326.5 137.5t-326.5 -137.5t-136.5 -329.5z" />
<glyph unicode="R" horiz-adv-x="1353" d="M174 0v1352h571q220 0 363 -133.5t143 -329.5q0 -132 -69 -245.5t-187 -176.5l289 -467h-274l-250 408h-15h-325v-408h-246zM420 614h299q125 0 202.5 80t77.5 191t-77 187.5t-203 76.5h-299v-535z" />
<glyph unicode="S" horiz-adv-x="1196" d="M104 338q0 43 7 94h200v-70q0 -72 75 -134t210 -62q122 0 189 52.5t67 135.5q0 30 -10 56t-24.5 45t-39.5 37t-46.5 29.5t-56 24t-56.5 19.5t-58 17q-85 24 -144 45.5t-119 54.5t-95.5 71.5t-57.5 94t-22 125.5q0 183 131.5 292t337.5 109q207 0 337 -113t130 -315h-215 q-1 118 -66.5 177t-179.5 59q-108 0 -172 -50t-64 -143q0 -28 8 -51.5t20 -41t36 -34t44 -27.5t58 -24.5t64 -21t74 -21.5q74 -20 129 -40t114 -53t96.5 -72.5t62 -98.5t24.5 -131q0 -185 -136.5 -290.5t-355.5 -105.5q-116 0 -211.5 30.5t-156.5 81.5t-94.5 115.5 t-33.5 133.5z" />
<glyph unicode="T" horiz-adv-x="1275" d="M55 1130v222h1166v-222h-459v-1130h-248v1130h-459z" />
<glyph unicode="U" horiz-adv-x="1404" d="M139 524v828h248v-807q0 -183 77 -270t238 -87t238.5 87t77.5 270v807h248v-828q0 -270 -143.5 -407t-420.5 -137t-420 137t-143 407z" />
<glyph unicode="V" d="M27 1352h262l303 -860l80 -252l80 249l303 863h256l-498 -1352h-287z" />
<glyph unicode="W" horiz-adv-x="1978" d="M45 1352h260l277 -1090l284 1090h256l289 -1090l275 1090h249l-389 -1352h-284l-203 768l-66 268h-4l-65 -268l-201 -768h-289z" />
<glyph unicode="X" horiz-adv-x="1294" d="M33 0l463 684l-428 668h286l308 -482l307 482h260l-430 -658l450 -694h-286l-328 494l-324 -494h-278z" />
<glyph unicode="Y" horiz-adv-x="1218" d="M4 1352h270l230 -422l106 -199l105 199l231 422h268l-481 -840v-512h-248v512z" />
<glyph unicode="Z" horiz-adv-x="1257" d="M66 0l751 1135h-661v217h1061l-756 -1147h698v-205h-1093z" />
<glyph unicode="[" horiz-adv-x="722" d="M162 -344v1823h514v-215h-295v-1393h295v-215h-514z" />
<glyph unicode="\" horiz-adv-x="894" d="M-68 1479h232l704 -1622h-231z" />
<glyph unicode="]" horiz-adv-x="722" d="M47 -129h295v1393h-295v215h514v-1823h-514v215z" />
<glyph unicode="^" horiz-adv-x="1165" d="M39 727l434 762h217l436 -762h-223l-321 576l-320 -576h-223z" />
<glyph unicode="_" horiz-adv-x="1073" d="M-14 -170h1104v-209h-1104v209z" />
<glyph unicode="`" horiz-adv-x="993" d="M221 1526h225l170 -348h-217z" />
<glyph unicode="a" horiz-adv-x="1157" d="M94 246q0 112 74.5 189.5t216.5 117.5q63 21 146.5 31.5t261.5 23.5v58q0 87 -59 139.5t-156 52.5q-100 0 -172.5 -44t-102.5 -132l-192 80q34 132 156.5 207t316.5 75q210 0 331 -93t121 -275v-445v-243l-227 -2v143q-55 -71 -152.5 -111.5t-207.5 -40.5q-163 0 -259 70 t-96 199zM332 270q0 -55 50.5 -86.5t125.5 -31.5q107 0 196 53.5t89 136.5v125q-221 -14 -328 -47q-63 -19 -98 -58t-35 -92z" />
<glyph unicode="b" horiz-adv-x="1241" d="M119 0v1479h246v-559q125 122 311 122q99 0 190 -39t159 -107t108.5 -168.5t40.5 -217.5q0 -116 -40 -216t-108 -168.5t-159 -107t-191 -38.5q-105 0 -193.5 39.5t-148.5 109.5v-129h-215zM334 502q0 -138 92 -227t221 -89q125 0 214 93t89 233q0 137 -89 229.5 t-214 92.5q-130 0 -221.5 -87.5t-91.5 -226.5v-18z" />
<glyph unicode="c" horiz-adv-x="1126" d="M74 508q0 148 71.5 272t194.5 195.5t268 71.5q149 0 272 -76t191 -205l-182 -100q-42 79 -117 124.5t-166 45.5q-131 0 -221 -95t-90 -231t89.5 -228t221.5 -92q89 0 161 39.5t116 112.5l186 -98q-68 -125 -190 -196t-271 -71q-146 0 -268.5 69.5t-194 191.5t-71.5 270z " />
<glyph unicode="d" horiz-adv-x="1239" d="M66 510q0 117 40.5 217.5t108.5 168.5t158.5 107t189.5 39q186 0 311 -122v559h246v-1479h-215v129q-60 -70 -148.5 -109.5t-193.5 -39.5q-100 0 -190.5 38.5t-158.5 107t-108 168.5t-40 216zM289 512q0 -140 89 -233t214 -93q129 0 221 89t92 227v18q0 139 -91.5 226.5 t-221.5 87.5q-125 0 -214 -92.5t-89 -229.5z" />
<glyph unicode="e" horiz-adv-x="1183" d="M80 512q0 148 60.5 267.5t182 192t285.5 72.5q233 0 368.5 -140t135.5 -374q0 -56 -8 -110h-778q24 -121 105.5 -186.5t191.5 -65.5q95 0 169 36t97 99l201 -80q-52 -117 -175 -180t-292 -63q-251 0 -397 145.5t-146 386.5zM326 598h557q-19 119 -94 188.5t-183 69.5 q-112 0 -186 -68t-94 -190z" />
<glyph unicode="f" horiz-adv-x="866" d="M51 825v189h187v147q0 161 99 248.5t271 87.5q124 0 189 -41v-192q-77 30 -144 30q-86 0 -132 -40t-46 -117v-123h328v-189h-320v-825h-245v825h-187z" />
<glyph unicode="g" horiz-adv-x="1187" d="M92 -182q0 69 49 121t140 73q-68 30 -109 80t-41 117q0 135 123 192q-121 103 -121 269q0 161 125.5 267.5t329.5 106.5q132 0 225 -43l158 148l135 -127l-139 -133q75 -93 75 -219q0 -160 -124.5 -266.5t-329.5 -106.5q-136 0 -238 45q-28 -25 -28 -76q0 -44 32 -68 t88 -24h344q160 0 249 -71t89 -199q0 -163 -150.5 -253.5t-393.5 -90.5t-365.5 70t-122.5 188zM295 -133q0 -135 311 -135q150 0 231 39t81 100q0 102 -168 102h-277q-178 0 -178 -106zM369 668q0 -91 64 -152t155 -61t156 61t65 152q0 92 -65 153.5t-156 61.5t-155 -61.5 t-64 -153.5z" />
<glyph unicode="h" horiz-adv-x="1193" d="M119 0v1479h246v-566q120 131 329 131q169 0 274 -97t105 -279v-668h-246v592q0 256 -202 256q-108 0 -184 -76.5t-76 -230.5v-541h-246z" />
<glyph unicode="i" horiz-adv-x="548" d="M119 1339q0 65 45.5 110.5t109.5 45.5t110 -45.5t46 -110.5q0 -63 -46 -109t-110 -46t-109.5 46t-45.5 109zM152 0v1024h245v-1024h-245z" />
<glyph unicode="j" horiz-adv-x="542" d="M10 -213q144 0 144 168v1069h245v-1108q0 -105 -29 -177t-84.5 -110t-121.5 -53.5t-154 -15.5v227zM119 1339q0 65 46 112.5t111 47.5q64 0 112 -47.5t48 -112.5q0 -64 -47.5 -110.5t-112.5 -46.5q-66 0 -111.5 46t-45.5 111z" />
<glyph unicode="k" horiz-adv-x="1148" d="M109 0v1479h245v-942l469 487h285l-389 -401l414 -623h-283l-301 469l-195 -203v-266h-245z" />
<glyph unicode="l" horiz-adv-x="512" d="M133 0v1479h246v-1479h-246z" />
<glyph unicode="m" horiz-adv-x="1916" d="M162 0v1024h217l10 -176q53 97 141 146.5t195 49.5q115 0 206 -51.5t134 -152.5q49 99 144.5 151.5t205.5 52.5q160 0 267 -97t106 -279l-2 -668h-244v623q0 116 -52.5 169.5t-143.5 53.5q-106 0 -177 -77t-71 -214v-555h-246v623q0 116 -53 169.5t-144 53.5 q-99 0 -173 -76t-74 -225v-545h-246z" />
<glyph unicode="n" horiz-adv-x="1193" d="M119 0v1024h219l10 -178q49 100 139 149t207 49q169 0 274 -97t105 -279v-668h-246v592q0 254 -202 254q-51 0 -95.5 -17t-82.5 -51.5t-60 -94.5t-22 -140v-543h-246z" />
<glyph unicode="o" horiz-adv-x="1185" d="M55 508q0 148 72.5 272t196 195.5t268.5 71.5q146 0 270 -71.5t196 -195.5t72 -272q0 -111 -42.5 -209.5t-115 -168t-171.5 -110t-209 -40.5q-146 0 -269 68.5t-195.5 190.5t-72.5 269zM279 510q0 -135 90.5 -226t222.5 -91t223.5 91.5t91.5 225.5t-92 230t-223 96 t-222 -96t-91 -230z" />
<glyph unicode="p" horiz-adv-x="1234" d="M119 -430v1454h221v-129q60 69 148 108t192 39q100 0 191 -38.5t159 -107t108 -168.5t40 -216q0 -117 -40.5 -217.5t-108.5 -168.5t-159 -107t-190 -39q-92 0 -174 33.5t-141 92.5v-536h-246zM340 463q13 -123 102 -199t209 -76q125 0 214 92.5t89 229.5q0 140 -89 233 t-214 93q-119 0 -208.5 -77.5t-102.5 -199.5v-96z" />
<glyph unicode="q" horiz-adv-x="1257" d="M84 510q0 117 40.5 217.5t108.5 168.5t159 107t190 39q103 0 193.5 -42.5t150.5 -114.5v139h215v-1454h-246v528q-124 -118 -313 -118q-100 0 -191 38.5t-159 107t-108 168.5t-40 216zM307 512q0 -140 89 -233t214 -93q123 0 214 81.5t100 209.5v64q-7 130 -98 211.5 t-216 81.5t-214 -92.5t-89 -229.5z" />
<glyph unicode="r" horiz-adv-x="843" d="M123 0v1024h237v-125q99 145 312 145q75 0 112 -22l-34 -219q-51 28 -129 28q-101 0 -176.5 -77t-75.5 -217v-537h-246z" />
<glyph unicode="s" horiz-adv-x="1077" d="M74 186l153 146q74 -166 314 -166q98 0 151 30.5t53 79.5q0 44 -51 70.5t-172 50.5q-221 44 -319.5 116.5t-98.5 205.5q0 135 119 230t328 95q167 0 271.5 -54.5t166.5 -170.5l-162 -129q-41 87 -107.5 127.5t-166.5 40.5q-91 0 -147 -33.5t-56 -83.5t56 -79.5t184 -55.5 q208 -40 305.5 -110t97.5 -201q0 -141 -120 -228t-332 -87q-340 0 -467 206z" />
<glyph unicode="t" horiz-adv-x="907" d="M55 825v187h193v313h246v-313h346v-187h-346v-479q0 -73 37 -111t104 -38q31 0 65 11t49 19t48 27l49 -188q-107 -86 -273 -86q-146 0 -235.5 81.5t-89.5 237.5v526h-193z" />
<glyph unicode="u" horiz-adv-x="1177" d="M104 362v662h246v-612q0 -128 50 -181t147 -53q117 0 191.5 74t74.5 221v551h246v-1024h-230l-2 135q-90 -158 -348 -158q-82 0 -148 21t-118 65.5t-80.5 120.5t-28.5 178z" />
<glyph unicode="v" horiz-adv-x="1118" d="M20 1024h267l274 -838l281 838h256l-402 -1024h-276z" />
<glyph unicode="w" horiz-adv-x="1787" d="M45 1024h264l219 -811l244 811h244l244 -809l221 809h262l-334 -1024h-276l-244 752l-232 -752h-276z" />
<glyph unicode="x" horiz-adv-x="1136" d="M45 0l367 518l-346 506h278l234 -352l233 352h272l-352 -504l359 -520h-281l-246 367l-252 -367h-266z" />
<glyph unicode="y" horiz-adv-x="1138" d="M31 -358l65 180q57 -70 170 -70q62 0 103.5 29.5t70.5 107.5l41 103l-110 258l-316 774h273l213 -600l57 -182l66 196l202 586h252l-432 -1120q-70 -190 -162 -267t-243 -77q-162 0 -250 82z" />
<glyph unicode="z" horiz-adv-x="1046" d="M35 0l588 831h-535v193h916l-582 -840l561 4v-188h-948z" />
<glyph unicode="{" horiz-adv-x="751" d="M55 477v180q125 0 177.5 49t52.5 164v359q0 155 90.5 225t302.5 70l20 -172q-108 0 -156 -32t-48 -101v-390q0 -170 -140 -262q140 -92 140 -262v-387q0 -71 48 -103t156 -32l-20 -172q-212 0 -302.5 70.5t-90.5 224.5v358q0 115 -52.5 164t-177.5 49z" />
<glyph unicode="|" horiz-adv-x="538" d="M162 -344v1823h215v-1823h-215z" />
<glyph unicode="}" horiz-adv-x="751" d="M53 -217q108 0 156.5 32t48.5 103v387q0 171 139 262q-139 91 -139 262v390q0 69 -48.5 101t-156.5 32l21 172q212 0 302.5 -70t90.5 -225v-359q0 -116 52.5 -164.5t176.5 -48.5v-180q-124 0 -176.5 -48.5t-52.5 -164.5v-358q0 -154 -90.5 -224.5t-302.5 -70.5z" />
<glyph unicode="~" horiz-adv-x="1128" d="M74 481q21 346 295 346q52 0 98 -14.5t79 -35.5t63 -41.5t61.5 -35t62.5 -14.5q93 0 115 137h207q-11 -170 -85.5 -258t-209.5 -88q-52 0 -98 15t-79.5 36t-63 42t-62 36t-64.5 15q-90 0 -112 -140h-207z" />
<glyph unicode="&#xa1;" horiz-adv-x="542" d="M109 885q0 67 46.5 113t114.5 46q66 0 113 -46t47 -113t-47 -113.5t-113 -46.5q-68 0 -114.5 46.5t-46.5 113.5zM141 -328l25 918h207l26 -918h-258z" />
<glyph unicode="&#xa2;" horiz-adv-x="1138" d="M63 508q0 203 134 355.5t333 183.5v182h150v-180q134 -17 244 -92.5t172 -190.5l-185 -96q-35 66 -95.5 111.5t-135.5 60.5v-664q70 15 128 56.5t95 103.5l191 -92q-62 -114 -172 -189t-242 -90v-172h-150v174q-199 31 -333 183.5t-134 355.5zM274 510q0 -117 73 -208.5 t183 -119.5v656q-110 -28 -183 -119.5t-73 -208.5z" />
<glyph unicode="&#xa3;" horiz-adv-x="1249" d="M74 162q0 82 69 134t181 52q114 0 204 -41q2 12 2 39q0 99 -63 203h-336v164h215q-56 77 -78 133t-22 117q0 176 125 292.5t331 116.5q359 0 441 -338l-203 -100q-30 125 -87 184.5t-159 59.5q-104 0 -166.5 -55t-62.5 -146q0 -51 22.5 -103t83.5 -139l17 -22h389v-164 h-299q29 -77 29 -162q0 -83 -31 -162q55 -33 100 -50t101 -17q80 0 115.5 44t35.5 142l168 -10q11 -160 -63 -257t-218 -97q-88 0 -161 31.5t-158 88.5q-107 -120 -287 -120q-106 0 -170.5 49.5t-64.5 132.5zM233 162q0 -30 25 -46t66 -16q104 0 159 74q-89 47 -159 47 q-91 0 -91 -59z" />
<glyph unicode="&#xa4;" horiz-adv-x="1314" d="M98 260l189 180q-64 103 -64 234q0 132 64 235l-189 176l148 148l180 -191q105 60 233 60q130 0 232 -60l178 191l148 -148l-187 -180q62 -105 62 -231q0 -134 -66 -238l191 -176l-148 -145l-182 186q-97 -57 -228 -57q-132 0 -235 61l-178 -190zM432 674 q0 -104 63.5 -171t163.5 -67q97 0 160.5 67t63.5 171t-63.5 170.5t-160.5 66.5q-100 0 -163.5 -66.5t-63.5 -170.5z" />
<glyph unicode="&#xa5;" horiz-adv-x="1292" d="M41 1352h266l338 -576h4l336 576h266l-456 -746l104 8h256v-120h-399v-148h399v-115h-399v-231h-219v231h-398v115h398v148h-398v120h254l105 -8z" />
<glyph unicode="&#xa6;" horiz-adv-x="507" d="M147 -344v758h215v-758h-215zM147 721v758h215v-758h-215z" />
<glyph unicode="&#xa7;" horiz-adv-x="1216" d="M43 578q0 180 170 288q-47 67 -47 172q0 146 124 240t335 94q170 0 271.5 -51.5t174.5 -151.5l-143 -129q-54 77 -124 114.5t-181 37.5q-120 0 -185 -35t-65 -96q0 -74 70.5 -113.5t252.5 -60.5q260 -30 372 -107t112 -219q0 -183 -172 -287q49 -66 49 -174 q0 -144 -122 -234.5t-327 -90.5q-165 0 -272.5 51t-183.5 151l147 129q50 -79 121.5 -115t185.5 -36q118 0 181 31.5t63 91.5q0 75 -70.5 114t-253.5 60q-259 30 -371 107.5t-112 218.5zM244 608q0 -65 68 -100t243 -55q193 -22 299 -66q125 52 125 143q0 67 -68.5 102.5 t-244.5 53.5q-192 21 -299 66q-123 -54 -123 -144z" />
<glyph unicode="&#xa8;" horiz-adv-x="993" d="M150 1309q0 59 41 100t100 41t101 -41.5t42 -99.5t-42 -100t-101 -42q-58 0 -99.5 41.5t-41.5 100.5zM569 1309q0 58 41.5 99.5t100.5 41.5t100 -41t41 -100t-41.5 -100.5t-99.5 -41.5q-59 0 -100.5 41.5t-41.5 100.5z" />
<glyph unicode="&#xa9;" horiz-adv-x="1605" d="M109 678q0 188 94.5 349t256.5 255t351 94q190 0 352.5 -94t257.5 -255t95 -349q0 -190 -95 -352t-257.5 -256.5t-352.5 -94.5q-189 0 -351 94.5t-256.5 256.5t-94.5 352zM264 676q0 -148 73.5 -275t199.5 -201.5t274 -74.5q149 0 276 74.5t201 201.5t74 275 q0 149 -74 276.5t-201 202t-276 74.5q-148 0 -274 -74.5t-199.5 -202t-73.5 -276.5zM391 670q0 178 125 302t303 124q120 0 220 -61t157 -163l-143 -73q-34 64 -97.5 102.5t-138.5 38.5q-109 0 -186.5 -78.5t-77.5 -187.5q0 -110 77.5 -189t186.5 -79q72 0 134 35.5t98 95.5 l145 -72q-56 -100 -155.5 -158.5t-219.5 -58.5q-116 0 -214.5 57t-156 154t-57.5 211z" />
<glyph unicode="&#xaa;" horiz-adv-x="802" d="M29 821q0 87 64.5 140t205.5 81l178 33v27q0 56 -33 87.5t-94 31.5t-102 -26.5t-62 -90.5l-147 55q21 93 102.5 147t216.5 54q312 0 312 -258v-264q0 -62 59 -62q29 0 47 6l-14 -110q-47 -21 -96 -21q-61 0 -101.5 27.5t-52.5 79.5q-36 -50 -103 -78.5t-155 -28.5 q-108 0 -166.5 43.5t-58.5 126.5zM45 367v141h696v-141h-696zM217 850q0 -70 100 -70q62 0 111 32.5t49 86.5v78l-119 -27q-74 -14 -107.5 -37t-33.5 -63z" />
<glyph unicode="&#xab;" horiz-adv-x="1062" d="M74 543l258 401h233l-256 -401l256 -402h-233zM496 543l258 401h233l-256 -401l256 -402h-233z" />
<glyph unicode="&#xac;" horiz-adv-x="1206" d="M106 557v197h994v-516h-215v319h-779z" />
<glyph unicode="&#xad;" horiz-adv-x="1030" d="M162 430v221h708v-221h-708z" />
<glyph unicode="&#xae;" horiz-adv-x="1579" d="M86 678q0 188 94.5 349t256.5 255t351 94q190 0 352.5 -94t257.5 -255t95 -349q0 -190 -95 -352t-257.5 -256.5t-352.5 -94.5q-189 0 -351 94.5t-256.5 256.5t-94.5 352zM242 676q0 -148 73 -275t199 -201.5t274 -74.5q149 0 276 74.5t201 201.5t74 275q0 149 -74 276.5 t-201 202t-276 74.5q-111 0 -212 -44t-174 -118.5t-116.5 -176.5t-43.5 -214zM504 301v752h334q122 0 200 -67.5t78 -176.5q0 -85 -46.5 -143.5t-127.5 -83.5l191 -281h-197l-160 264h-104v-264h-168zM672 688h141q133 0 133 115t-133 115h-141v-230z" />
<glyph unicode="&#xaf;" horiz-adv-x="993" d="M129 1196v172h735v-172h-735z" />
<glyph unicode="&#xb0;" horiz-adv-x="948" d="M156 1055q0 132 93.5 225.5t225.5 93.5t226 -93.5t94 -225.5t-94 -226t-226 -94t-225.5 94t-93.5 226zM328 1055q0 -61 43.5 -104.5t103.5 -43.5q62 0 106 43.5t44 104.5t-44 104t-106 43q-60 0 -103.5 -43t-43.5 -104z" />
<glyph unicode="&#xb1;" horiz-adv-x="1206" d="M98 0v190h1010v-190h-1010zM98 735v193h408v393h196v-393h406v-193h-406v-391h-196v391h-408z" />
<glyph unicode="&#xb2;" horiz-adv-x="649" d="M41 1249q11 118 89 189t204 71q133 0 200.5 -73.5t67.5 -186.5q0 -102 -61.5 -198.5t-198.5 -221.5h80h182v-147h-536v102q203 192 259 253q109 128 113 208q0 117 -112 117q-64 0 -99 -43.5t-41 -120.5z" />
<glyph unicode="&#xb3;" horiz-adv-x="712" d="M55 883l160 61q17 -127 137 -127q56 0 92.5 26t36.5 81q0 102 -129 102h-53v117h47q59 0 89 28t30 80q0 50 -32.5 76.5t-80.5 26.5q-47 0 -79.5 -29t-41.5 -86l-153 59q23 102 95 154.5t183 52.5q135 0 209 -62t74 -163q0 -125 -113 -188v-2q49 -19 90 -65.5t41 -125.5 q0 -103 -81 -166t-214 -63q-124 0 -203.5 58t-103.5 155z" />
<glyph unicode="&#xb4;" horiz-adv-x="993" d="M377 1178l170 348h225l-178 -348h-217z" />
<glyph unicode="&#xb5;" horiz-adv-x="1226" d="M137 -430v1454h246v-612q0 -128 50 -181t147 -53q111 0 181 60t85 170v616h246v-1024h-211l-13 178q-95 -198 -348 -198q-76 0 -137 30v-440h-246z" />
<glyph unicode="&#xb6;" horiz-adv-x="1398" d="M78 918q0 208 138 321t402 113h617v-1557h-205v1362h-246v-1362h-209v688q-235 3 -366 117t-131 318z" />
<glyph unicode="&#xb7;" horiz-adv-x="477" d="M76 725q0 66 47.5 113t112.5 47q66 0 113.5 -47t47.5 -113t-47.5 -113t-113.5 -47q-65 0 -112.5 47t-47.5 113z" />
<glyph unicode="&#xb8;" horiz-adv-x="993" d="M264 -365l70 136q57 -60 143 -60q51 0 83 30t32 81q0 60 -44.5 100.5t-166.5 83.5l88 60q142 -30 218.5 -106.5t76.5 -170.5q0 -102 -71.5 -165.5t-190.5 -63.5q-154 0 -238 75z" />
<glyph unicode="&#xb9;" horiz-adv-x="507" d="M10 1356l254 139h162v-813h-186v506q0 53 2 84l-148 -82z" />
<glyph unicode="&#xba;" horiz-adv-x="763" d="M39 1006q0 167 89 260.5t255 93.5q164 0 253 -93.5t89 -260.5q0 -168 -88.5 -261.5t-253.5 -93.5q-166 0 -255 93t-89 262zM59 367v141h646v-141h-646zM233 1006q0 -218 150 -218q147 0 147 218q0 217 -147 217q-150 0 -150 -217z" />
<glyph unicode="&#xbb;" horiz-adv-x="1062" d="M76 141l256 402l-256 401h233l258 -401l-258 -402h-233zM498 141l256 402l-256 401h233l258 -401l-258 -402h-233z" />
<glyph unicode="&#xbc;" horiz-adv-x="1540" d="M10 1223l254 139h162v-813h-186v506q0 53 2 84l-148 -82zM348 0l584 1352h198l-583 -1352h-199zM881 190v89l315 526h238v-483h49v-132h-49v-198h-158v198h-395zM1071 322h205v245l2 99z" />
<glyph unicode="&#xbd;" horiz-adv-x="1632" d="M10 1223l254 139h162v-813h-186v506q0 53 2 84l-148 -82zM348 0l584 1352h198l-583 -1352h-199zM1024 559q11 118 89 189t204 71q133 0 200.5 -73.5t67.5 -186.5q0 -102 -61.5 -198.5t-198.5 -221.5h80h182v-147h-536v102q203 192 259 253q109 128 113 208 q0 117 -112 117q-64 0 -99 -43.5t-41 -120.5z" />
<glyph unicode="&#xbe;" horiz-adv-x="1744" d="M55 750l160 61q17 -127 137 -127q56 0 92.5 26t36.5 81q0 102 -129 102h-53v117h47q59 0 89 28t30 80q0 50 -32.5 76.5t-80.5 26.5q-47 0 -79.5 -29t-41.5 -86l-153 59q23 102 95 154.5t183 52.5q135 0 209 -62t74 -163q0 -126 -113 -189v-2q49 -19 90 -65t41 -125 q0 -103 -81 -166t-214 -63q-124 0 -203.5 58t-103.5 155zM553 0l584 1352h198l-583 -1352h-199zM1085 190v89l316 526h237v-483h50v-132h-50v-198h-157v198h-396zM1276 322h205v245l2 99z" />
<glyph unicode="&#xbf;" horiz-adv-x="1132" d="M158 68q0 159 100.5 280t253.5 152v151h199v-325l-101 -9q-107 -9 -180.5 -78.5t-73.5 -168.5q0 -103 72.5 -175.5t175.5 -72.5q73 0 133 38.5t90 102.5l179 -86q-55 -114 -163 -182t-239 -68q-185 0 -315.5 129t-130.5 312zM453 891q0 65 46.5 110.5t112.5 45.5 q64 0 111 -46t47 -110t-47 -110t-111 -46q-66 0 -112.5 45.5t-46.5 110.5z" />
<glyph unicode="&#xc0;" d="M25 0l497 1352h295l496 -1352h-252l-96 274h-596l-97 -274h-247zM410 1817h231l115 -314h-217zM442 485h449l-162 461l-61 199h-4l-58 -195z" />
<glyph unicode="&#xc1;" d="M25 0l497 1352h295l496 -1352h-252l-96 274h-596l-97 -274h-247zM442 485h449l-162 461l-61 199h-4l-58 -195zM557 1503l115 314h231l-129 -314h-217z" />
<glyph unicode="&#xc2;" d="M25 0l497 1352h295l496 -1352h-252l-96 274h-596l-97 -274h-247zM313 1493l230 342h252l231 -342h-205l-151 209l-154 -209h-203zM442 485h449l-162 461l-61 199h-4l-58 -195z" />
<glyph unicode="&#xc3;" d="M25 0l497 1352h295l496 -1352h-252l-96 274h-596l-97 -274h-247zM281 1499q9 150 70 223.5t179 73.5q42 0 78.5 -13.5t61 -32t46 -37.5t43.5 -32.5t44 -13.5q40 0 61.5 32.5t30.5 98.5h158q-18 -299 -248 -299q-43 0 -79.5 13.5t-61 32.5t-45.5 38.5t-43.5 33t-45.5 13.5 q-40 0 -60.5 -32.5t-29.5 -98.5h-159zM442 485h449l-162 461l-61 199h-4l-58 -195z" />
<glyph unicode="&#xc4;" d="M25 0l497 1352h295l496 -1352h-252l-96 274h-596l-97 -274h-247zM317 1636q0 58 41.5 100t100.5 42t101 -42t42 -100t-42 -99.5t-101 -41.5t-100.5 41.5t-41.5 99.5zM442 485h449l-162 461l-61 199h-4l-58 -195zM737 1636q0 58 41.5 100t100.5 42q58 0 99.5 -41.5 t41.5 -100.5q0 -58 -41 -99.5t-100 -41.5t-100.5 41.5t-41.5 99.5z" />
<glyph unicode="&#xc5;" d="M25 0l477 1296q-111 65 -111 205q0 113 76 182.5t203 69.5q128 0 203 -69t75 -183q0 -137 -110 -205l475 -1296h-252l-96 274h-596l-97 -274h-247zM442 485h449l-162 461l-61 199h-4l-58 -195zM535 1497q0 -58 37.5 -94.5t97.5 -36.5q59 0 96 36.5t37 94.5q0 57 -37 93 t-96 36q-60 0 -97.5 -36t-37.5 -93z" />
<glyph unicode="&#xc6;" horiz-adv-x="1896" d="M-12 0l698 1352h1110v-201h-678v-373h516v-192h-516v-385h707v-201h-944v422h-430l-207 -422h-256zM541 608h340v547h-72z" />
<glyph unicode="&#xc7;" horiz-adv-x="1396" d="M76 676q0 188 93 348.5t252.5 254t346.5 93.5q169 0 315 -76.5t242 -208.5l-190 -131q-66 85 -161 133t-206 48q-189 0 -323 -135t-134 -328q0 -124 61 -230t166.5 -168.5t229.5 -62.5q111 0 207 49t160 135l192 -131q-79 -110 -195.5 -183.5t-252.5 -96.5 q108 -80 108 -197q0 -102 -71.5 -165.5t-190.5 -63.5q-154 0 -238 75l70 136q57 -60 143 -60q51 0 83 30t32 81q0 54 -34.5 91t-125.5 73q-162 27 -294.5 124.5t-208.5 246.5t-76 319z" />
<glyph unicode="&#xc8;" horiz-adv-x="1286" d="M174 0v1352h995v-207h-747v-375h653v-203h-653v-360h776v-207h-1024zM444 1817h232l115 -314h-218z" />
<glyph unicode="&#xc9;" horiz-adv-x="1286" d="M174 0v1352h995v-207h-747v-375h653v-203h-653v-360h776v-207h-1024zM557 1503l115 314h231l-129 -314h-217z" />
<glyph unicode="&#xca;" horiz-adv-x="1286" d="M174 0v1352h995v-207h-747v-375h653v-203h-653v-360h776v-207h-1024zM309 1493l230 342h252l231 -342h-205l-151 209l-154 -209h-203z" />
<glyph unicode="&#xcb;" horiz-adv-x="1286" d="M174 0v1352h995v-207h-747v-375h653v-203h-653v-360h776v-207h-1024zM313 1636q0 58 41.5 100t100.5 42t101 -42t42 -100t-42 -99.5t-101 -41.5t-100.5 41.5t-41.5 99.5zM733 1636q0 59 41.5 100.5t99.5 41.5t100 -42t42 -100t-41.5 -99.5t-100.5 -41.5q-58 0 -99.5 41.5 t-41.5 99.5z" />
<glyph unicode="&#xcc;" horiz-adv-x="595" d="M39 1817h231l115 -314h-217zM172 0v1352h252v-1352h-252z" />
<glyph unicode="&#xcd;" horiz-adv-x="595" d="M172 0v1352h252v-1352h-252zM203 1503l114 314h232l-129 -314h-217z" />
<glyph unicode="&#xce;" horiz-adv-x="595" d="M-57 1493l229 342h252l231 -342h-204l-152 209l-154 -209h-202zM172 0v1352h252v-1352h-252z" />
<glyph unicode="&#xcf;" horiz-adv-x="595" d="M-33 1630q0 63 38 99t101 36q65 0 103.5 -36t38.5 -99q0 -61 -38.5 -98t-103.5 -37q-63 0 -101 37t-38 98zM172 0v1352h252v-1352h-252zM348 1630q0 63 38 99t101 36q65 0 103.5 -36t38.5 -99q0 -61 -38.5 -98t-103.5 -37q-63 0 -101 37t-38 98z" />
<glyph unicode="&#xd0;" horiz-adv-x="1482" d="M27 594v172h186v586h545q318 0 492.5 -176t174.5 -500t-174.5 -500t-492.5 -176h-545v594h-186zM461 203h291q202 0 313 126t111 347t-111 347t-313 126h-291v-383h344v-172h-344v-391z" />
<glyph unicode="&#xd1;" horiz-adv-x="1480" d="M174 0v1352h287l500 -820l124 -235h5l-9 227v828h224v-1352h-285l-502 821l-125 238h-2l8 -232v-827h-225zM358 1499q9 150 70.5 223.5t179.5 73.5q42 0 78.5 -13.5t61 -32t46 -37.5t43.5 -32.5t44 -13.5q40 0 61.5 32.5t30.5 98.5h157q-18 -299 -247 -299 q-43 0 -79.5 13.5t-61 32.5t-45.5 38.5t-43.5 33t-45.5 13.5q-40 0 -60.5 -32.5t-29.5 -98.5h-160z" />
<glyph unicode="&#xd2;" horiz-adv-x="1527" d="M68 676q0 188 93.5 348.5t254 254t348.5 93.5t348 -93.5t253 -254t93 -348.5q0 -189 -93 -350t-253 -255t-348 -94q-141 0 -270 55.5t-222 149t-148.5 223t-55.5 271.5zM301 674q0 -189 136.5 -326t326.5 -137t326.5 137t136.5 326q0 192 -136.5 329.5t-326.5 137.5 t-326.5 -137.5t-136.5 -329.5zM512 1817h231l115 -314h-217z" />
<glyph unicode="&#xd3;" horiz-adv-x="1527" d="M68 676q0 188 93.5 348.5t254 254t348.5 93.5t348 -93.5t253 -254t93 -348.5q0 -189 -93 -350t-253 -255t-348 -94q-141 0 -270 55.5t-222 149t-148.5 223t-55.5 271.5zM301 674q0 -189 136.5 -326t326.5 -137t326.5 137t136.5 326q0 192 -136.5 329.5t-326.5 137.5 t-326.5 -137.5t-136.5 -329.5zM651 1503l115 314h231l-129 -314h-217z" />
<glyph unicode="&#xd4;" horiz-adv-x="1527" d="M68 676q0 188 93.5 348.5t254 254t348.5 93.5t348 -93.5t253 -254t93 -348.5q0 -189 -93 -350t-253 -255t-348 -94q-141 0 -270 55.5t-222 149t-148.5 223t-55.5 271.5zM301 674q0 -189 136.5 -326t326.5 -137t326.5 137t136.5 326q0 192 -136.5 329.5t-326.5 137.5 t-326.5 -137.5t-136.5 -329.5zM410 1493l229 342h252l231 -342h-204l-152 209l-154 -209h-202z" />
<glyph unicode="&#xd5;" horiz-adv-x="1527" d="M68 676q0 188 93.5 348.5t254 254t348.5 93.5t348 -93.5t253 -254t93 -348.5q0 -189 -93 -350t-253 -255t-348 -94q-141 0 -270 55.5t-222 149t-148.5 223t-55.5 271.5zM301 674q0 -189 136.5 -326t326.5 -137t326.5 137t136.5 326q0 192 -136.5 329.5t-326.5 137.5 t-326.5 -137.5t-136.5 -329.5zM377 1499q9 150 70.5 223.5t179.5 73.5q42 0 78 -13.5t61 -32t46 -37.5t43 -32.5t44 -13.5q40 0 61.5 32.5t30.5 98.5h158q-18 -299 -248 -299q-53 0 -96.5 20.5t-67.5 45t-53.5 45t-56.5 20.5q-40 0 -60.5 -32.5t-29.5 -98.5h-160z" />
<glyph unicode="&#xd6;" horiz-adv-x="1527" d="M68 676q0 188 93.5 348.5t254 254t348.5 93.5t348 -93.5t253 -254t93 -348.5q0 -189 -93 -350t-253 -255t-348 -94q-141 0 -270 55.5t-222 149t-148.5 223t-55.5 271.5zM301 674q0 -189 136.5 -326t326.5 -137t326.5 137t136.5 326q0 192 -136.5 329.5t-326.5 137.5 t-326.5 -137.5t-136.5 -329.5zM412 1636q0 59 41.5 100.5t99.5 41.5q59 0 101 -42t42 -100t-42 -99.5t-101 -41.5t-100 41.5t-41 99.5zM831 1636q0 58 41.5 100t100.5 42q58 0 99.5 -41.5t41.5 -100.5q0 -58 -41 -99.5t-100 -41.5t-100.5 41.5t-41.5 99.5z" />
<glyph unicode="&#xd7;" horiz-adv-x="1206" d="M127 326l143 -144l334 334l332 -334l143 144l-331 333l331 332l-143 144l-332 -332l-334 332l-143 -144l477 -475l144 143l-144 144z" />
<glyph unicode="&#xd8;" horiz-adv-x="1597" d="M68 676q0 188 93.5 348.5t254 254t348.5 93.5q209 0 379 -112l96 137h160l-156 -217q101 -97 158 -227.5t57 -276.5q0 -189 -93 -350t-253 -255t-348 -94q-173 0 -324 80l-88 -125h-159l139 197q-122 97 -193 240.5t-71 306.5zM301 674q0 -105 46 -199t126 -160l531 758 q-111 68 -240 68q-190 0 -326.5 -137.5t-136.5 -329.5zM586 248q81 -37 178 -37q190 0 326.5 137t136.5 326q0 179 -123 315z" />
<glyph unicode="&#xd9;" horiz-adv-x="1404" d="M139 524v828h248v-807q0 -183 77 -270t238 -87t238.5 87t77.5 270v807h248v-828q0 -270 -143.5 -407t-420.5 -137t-420 137t-143 407zM442 1817h232l114 -314h-217z" />
<glyph unicode="&#xda;" horiz-adv-x="1404" d="M139 524v828h248v-807q0 -183 77 -270t238 -87t238.5 87t77.5 270v807h248v-828q0 -270 -143.5 -407t-420.5 -137t-420 137t-143 407zM590 1503l115 314h231l-129 -314h-217z" />
<glyph unicode="&#xdb;" horiz-adv-x="1404" d="M139 524v828h248v-807q0 -183 77 -270t238 -87t238.5 87t77.5 270v807h248v-828q0 -270 -143.5 -407t-420.5 -137t-420 137t-143 407zM346 1493l229 342h252l232 -342h-205l-152 209l-153 -209h-203z" />
<glyph unicode="&#xdc;" horiz-adv-x="1404" d="M139 524v828h248v-807q0 -183 77 -270t238 -87t238.5 87t77.5 270v807h248v-828q0 -270 -143.5 -407t-420.5 -137t-420 137t-143 407zM350 1636q0 58 42 100t100 42q59 0 101 -42t42 -100t-42 -99.5t-101 -41.5t-100.5 41.5t-41.5 99.5zM770 1636q0 59 41.5 100.5 t99.5 41.5q59 0 100.5 -42t41.5 -100t-41.5 -99.5t-100.5 -41.5t-100 41.5t-41 99.5z" />
<glyph unicode="&#xdd;" horiz-adv-x="1218" d="M4 1352h270l230 -422l106 -199l105 199l231 422h268l-481 -840v-512h-248v512zM498 1503l114 314h232l-129 -314h-217z" />
<glyph unicode="&#xde;" horiz-adv-x="1290" d="M174 0v1352h248v-226h268q254 0 386 -111.5t132 -324.5q0 -212 -132 -324t-386 -112h-268v-254h-248zM422 457h260q137 0 204.5 57t67.5 176q0 234 -272 234h-260v-467z" />
<glyph unicode="&#xdf;" horiz-adv-x="1265" d="M145 0v985q0 117 27.5 206.5t87.5 157.5t163.5 104t246.5 36q119 0 211 -33.5t146 -90t81 -123.5t27 -140q0 -57 -20 -112.5t-58.5 -103t-104.5 -77t-149 -29.5v-4q95 0 169.5 -32.5t118.5 -88t66.5 -122.5t22.5 -142q0 -81 -28 -153.5t-82 -130.5t-142.5 -92.5 t-198.5 -34.5q-72 0 -135 19t-98 48l51 176q58 -49 158 -49q113 0 176 68.5t63 181.5q0 119 -76 180.5t-219 61.5h-90l16 196h72q113 0 178.5 61t65.5 160q0 103 -60 156t-174 53q-147 0 -206.5 -83t-59.5 -263v-946h-246z" />
<glyph unicode="&#xe0;" horiz-adv-x="1157" d="M94 246q0 112 74.5 189.5t216.5 117.5q63 21 146.5 31.5t261.5 23.5v58q0 87 -59 139.5t-156 52.5q-100 0 -172.5 -44t-102.5 -132l-192 80q34 132 156.5 207t316.5 75q210 0 331 -93t121 -275v-445v-243l-227 -2v143q-55 -71 -152.5 -111.5t-207.5 -40.5q-163 0 -259 70 t-96 199zM324 1526h225l170 -348h-217zM332 270q0 -55 50.5 -86.5t125.5 -31.5q107 0 196 53.5t89 136.5v125q-221 -14 -328 -47q-63 -19 -98 -58t-35 -92z" />
<glyph unicode="&#xe1;" horiz-adv-x="1157" d="M94 246q0 112 74.5 189.5t216.5 117.5q63 21 146.5 31.5t261.5 23.5v58q0 87 -59 139.5t-156 52.5q-100 0 -172.5 -44t-102.5 -132l-192 80q34 132 156.5 207t316.5 75q210 0 331 -93t121 -275v-445v-243l-227 -2v143q-55 -71 -152.5 -111.5t-207.5 -40.5q-163 0 -259 70 t-96 199zM332 270q0 -55 50.5 -86.5t125.5 -31.5q107 0 196 53.5t89 136.5v125q-221 -14 -328 -47q-63 -19 -98 -58t-35 -92zM463 1178l170 348h225l-178 -348h-217z" />
<glyph unicode="&#xe2;" horiz-adv-x="1157" d="M94 246q0 112 74.5 189.5t216.5 117.5q63 21 146.5 31.5t261.5 23.5v58q0 87 -59 139.5t-156 52.5q-100 0 -172.5 -44t-102.5 -132l-192 80q34 132 156.5 207t316.5 75q210 0 331 -93t121 -275v-445v-243l-227 -2v143q-55 -71 -152.5 -111.5t-207.5 -40.5q-163 0 -259 70 t-96 199zM246 1163l225 348h256l225 -348h-211l-141 221l-141 -221h-213zM332 270q0 -55 50.5 -86.5t125.5 -31.5q107 0 196 53.5t89 136.5v125q-221 -14 -328 -47q-63 -19 -98 -58t-35 -92z" />
<glyph unicode="&#xe3;" horiz-adv-x="1157" d="M94 246q0 112 74.5 189.5t216.5 117.5q63 21 146.5 31.5t261.5 23.5v58q0 87 -59 139.5t-156 52.5q-100 0 -172.5 -44t-102.5 -132l-192 80q34 132 156.5 207t316.5 75q210 0 331 -93t121 -275v-445v-243l-227 -2v143q-55 -71 -152.5 -111.5t-207.5 -40.5q-163 0 -259 70 t-96 199zM213 1171q9 150 70.5 223.5t179.5 73.5q42 0 78 -13.5t61 -32t46 -37.5t43 -32.5t44 -13.5q40 0 61.5 32.5t30.5 98.5h158q-18 -299 -248 -299q-43 0 -79.5 13.5t-61 33t-45.5 39t-43 33t-45 13.5q-39 0 -59.5 -32.5t-30.5 -99.5h-160zM332 270q0 -55 50.5 -86.5 t125.5 -31.5q107 0 196 53.5t89 136.5v125q-221 -14 -328 -47q-63 -19 -98 -58t-35 -92z" />
<glyph unicode="&#xe4;" horiz-adv-x="1157" d="M94 246q0 112 74.5 189.5t216.5 117.5q63 21 146.5 31.5t261.5 23.5v58q0 87 -59 139.5t-156 52.5q-100 0 -172.5 -44t-102.5 -132l-192 80q34 132 156.5 207t316.5 75q210 0 331 -93t121 -275v-445v-243l-227 -2v143q-55 -71 -152.5 -111.5t-207.5 -40.5q-163 0 -259 70 t-96 199zM248 1309q0 59 41 100t100 41t101 -41.5t42 -99.5t-42 -100t-101 -42q-58 0 -99.5 41.5t-41.5 100.5zM332 270q0 -55 50.5 -86.5t125.5 -31.5q107 0 196 53.5t89 136.5v125q-221 -14 -328 -47q-63 -19 -98 -58t-35 -92zM668 1309q0 59 41 100t100 41t100 -41 t41 -100t-41.5 -100.5t-99.5 -41.5t-99.5 41.5t-41.5 100.5z" />
<glyph unicode="&#xe5;" horiz-adv-x="1157" d="M94 246q0 112 74.5 189.5t216.5 117.5q63 21 146.5 31.5t261.5 23.5v58q0 87 -59 139.5t-156 52.5q-100 0 -172.5 -44t-102.5 -132l-192 80q34 132 156.5 207t316.5 75q210 0 331 -93t121 -275v-445v-243l-227 -2v143q-55 -71 -152.5 -111.5t-207.5 -40.5q-163 0 -259 70 t-96 199zM332 270q0 -55 50.5 -86.5t125.5 -31.5q107 0 196 53.5t89 136.5v125q-221 -14 -328 -47q-63 -19 -98 -58t-35 -92zM350 1401q0 101 72.5 173.5t173.5 72.5t173.5 -72.5t72.5 -173.5t-72.5 -173.5t-173.5 -72.5t-173.5 72.5t-72.5 173.5zM489 1401q0 -44 32 -75.5 t75 -31.5q45 0 78.5 32t30.5 75q0 44 -32 75t-77 31q-43 0 -75 -31t-32 -75z" />
<glyph unicode="&#xe6;" horiz-adv-x="1796" d="M88 246q0 247 381 311l283 49v60q0 90 -54.5 141t-154.5 51q-183 0 -246 -176l-193 82q36 131 152.5 205.5t294.5 74.5q242 0 346 -176q57 85 144.5 130.5t197.5 45.5q149 0 255 -65t156 -172.5t50 -247.5q0 -67 -8 -125h-701q17 -129 87 -197.5t175 -68.5q94 0 148 34 t78 101l200 -80q-54 -121 -158.5 -182t-271.5 -61q-276 0 -385 210q-50 -106 -164 -158t-278 -52q-157 0 -245.5 71.5t-88.5 194.5zM340 266q0 -110 149 -110q107 0 185 62t78 167v72l-209 -43q-110 -24 -156.5 -56t-46.5 -92zM993 598h482q-14 126 -69.5 192t-162.5 66 q-103 0 -168 -66.5t-82 -191.5z" />
<glyph unicode="&#xe7;" horiz-adv-x="1126" d="M74 508q0 148 71.5 272t194.5 195.5t268 71.5q149 0 272 -76t191 -205l-182 -100q-42 79 -117 124.5t-166 45.5q-131 0 -221 -95t-90 -231t89.5 -228t221.5 -92q89 0 161 39.5t116 112.5l186 -98q-54 -98 -141.5 -163.5t-196.5 -88.5q115 -83 115 -203 q0 -102 -71.5 -165.5t-190.5 -63.5q-154 0 -238 75l70 136q57 -60 143 -60q51 0 83 30t32 81q0 53 -33 89.5t-121 72.5q-193 31 -319.5 177.5t-126.5 346.5z" />
<glyph unicode="&#xe8;" horiz-adv-x="1183" d="M80 512q0 148 60.5 267.5t182 192t285.5 72.5q233 0 368.5 -140t135.5 -374q0 -56 -8 -110h-778q24 -121 105.5 -186.5t191.5 -65.5q95 0 169 36t97 99l201 -80q-52 -117 -175 -180t-292 -63q-251 0 -397 145.5t-146 386.5zM326 598h557q-19 119 -94 188.5t-183 69.5 q-112 0 -186 -68t-94 -190zM326 1526h225l170 -348h-217z" />
<glyph unicode="&#xe9;" horiz-adv-x="1183" d="M80 512q0 148 60.5 267.5t182 192t285.5 72.5q233 0 368.5 -140t135.5 -374q0 -56 -8 -110h-778q24 -121 105.5 -186.5t191.5 -65.5q95 0 169 36t97 99l201 -80q-52 -117 -175 -180t-292 -63q-251 0 -397 145.5t-146 386.5zM326 598h557q-19 119 -94 188.5t-183 69.5 q-112 0 -186 -68t-94 -190zM465 1178l170 348h225l-178 -348h-217z" />
<glyph unicode="&#xea;" horiz-adv-x="1183" d="M80 512q0 148 60.5 267.5t182 192t285.5 72.5q233 0 368.5 -140t135.5 -374q0 -56 -8 -110h-778q24 -121 105.5 -186.5t191.5 -65.5q95 0 169 36t97 99l201 -80q-52 -117 -175 -180t-292 -63q-251 0 -397 145.5t-146 386.5zM248 1163l225 348h256l225 -348h-211l-141 221 l-141 -221h-213zM326 598h557q-19 119 -94 188.5t-183 69.5q-112 0 -186 -68t-94 -190z" />
<glyph unicode="&#xeb;" horiz-adv-x="1183" d="M80 512q0 148 60.5 267.5t182 192t285.5 72.5q233 0 368.5 -140t135.5 -374q0 -56 -8 -110h-778q24 -121 105.5 -186.5t191.5 -65.5q95 0 169 36t97 99l201 -80q-52 -117 -175 -180t-292 -63q-251 0 -397 145.5t-146 386.5zM250 1309q0 59 41 100t100 41t101.5 -41.5 t42.5 -99.5t-42.5 -100t-101.5 -42q-58 0 -99.5 41.5t-41.5 100.5zM326 598h557q-19 119 -94 188.5t-183 69.5q-112 0 -186 -68t-94 -190zM670 1309q0 59 41 100t100 41t100 -41t41 -100t-41.5 -100.5t-99.5 -41.5t-99.5 41.5t-41.5 100.5z" />
<glyph unicode="&#xec;" horiz-adv-x="538" d="M-6 1526h225l170 -348h-217zM145 0v1024h246v-1024h-246z" />
<glyph unicode="&#xed;" horiz-adv-x="538" d="M145 0v1024h246v-1024h-246zM147 1178l170 348h226l-178 -348h-218z" />
<glyph unicode="&#xee;" horiz-adv-x="538" d="M-84 1163l225 348h256l226 -348h-211l-142 221l-141 -221h-213zM145 0v1024h246v-1024h-246z" />
<glyph unicode="&#xef;" horiz-adv-x="538" d="M-47 1303q0 65 36.5 101t100.5 36q66 0 102.5 -36t36.5 -101q0 -64 -37 -101t-102 -37q-64 0 -100.5 37.5t-36.5 100.5zM145 0v1024h246v-1024h-246zM307 1303q0 64 37 100.5t102 36.5t102.5 -36.5t37.5 -100.5q0 -63 -38 -100.5t-102 -37.5t-101.5 37.5t-37.5 100.5z " />
<glyph unicode="&#xf0;" horiz-adv-x="1224" d="M92 492q0 237 136.5 374.5t353.5 137.5q215 0 321 -144q-47 203 -160 342l-360 -86l-23 107l310 57q-105 100 -291 209h266q124 -70 213 -166l234 61l30 -108l-196 -33q192 -257 192 -639q0 -301 -130 -462.5t-398 -161.5q-230 0 -364 136t-134 376zM344 492 q0 -156 68.5 -239t193.5 -83q130 0 203.5 90.5t73.5 231.5q0 160 -70.5 244.5t-200.5 84.5t-199 -84t-69 -245z" />
<glyph unicode="&#xf1;" horiz-adv-x="1193" d="M119 0v1024h219l10 -178q49 100 139 149t207 49q169 0 274 -97t105 -279v-668h-246v592q0 254 -202 254q-51 0 -95.5 -17t-82.5 -51.5t-60 -94.5t-22 -140v-543h-246zM217 1171q9 150 70.5 223.5t179.5 73.5q42 0 78 -13.5t61 -32t46 -37.5t43 -32.5t44 -13.5 q40 0 61.5 32.5t30.5 98.5h158q-18 -299 -248 -299q-43 0 -79.5 13.5t-61 33t-45.5 39t-43 33t-45 13.5q-39 0 -59.5 -32.5t-30.5 -99.5h-160z" />
<glyph unicode="&#xf2;" horiz-adv-x="1185" d="M55 508q0 148 72.5 272t196 195.5t268.5 71.5q146 0 270 -71.5t196 -195.5t72 -272q0 -111 -42.5 -209.5t-115 -168t-171.5 -110t-209 -40.5q-146 0 -269 68.5t-195.5 190.5t-72.5 269zM279 510q0 -135 90.5 -226t222.5 -91t223.5 91.5t91.5 225.5t-92 230t-223 96 t-222 -96t-91 -230zM317 1526h226l170 -348h-217z" />
<glyph unicode="&#xf3;" horiz-adv-x="1185" d="M55 508q0 148 72.5 272t196 195.5t268.5 71.5q146 0 270 -71.5t196 -195.5t72 -272q0 -111 -42.5 -209.5t-115 -168t-171.5 -110t-209 -40.5q-146 0 -269 68.5t-195.5 190.5t-72.5 269zM279 510q0 -135 90.5 -226t222.5 -91t223.5 91.5t91.5 225.5t-92 230t-223 96 t-222 -96t-91 -230zM457 1178l170 348h225l-178 -348h-217z" />
<glyph unicode="&#xf4;" horiz-adv-x="1185" d="M55 508q0 148 72.5 272t196 195.5t268.5 71.5q146 0 270 -71.5t196 -195.5t72 -272q0 -111 -42.5 -209.5t-115 -168t-171.5 -110t-209 -40.5q-146 0 -269 68.5t-195.5 190.5t-72.5 269zM240 1163l225 348h256l225 -348h-211l-141 221l-141 -221h-213zM279 510 q0 -135 90.5 -226t222.5 -91t223.5 91.5t91.5 225.5t-92 230t-223 96t-222 -96t-91 -230z" />
<glyph unicode="&#xf5;" horiz-adv-x="1185" d="M55 508q0 148 72.5 272t196 195.5t268.5 71.5q146 0 270 -71.5t196 -195.5t72 -272q0 -111 -42.5 -209.5t-115 -168t-171.5 -110t-209 -40.5q-146 0 -269 68.5t-195.5 190.5t-72.5 269zM205 1171q9 150 70.5 223.5t179.5 73.5q42 0 78 -13.5t61 -32t46 -37.5t43 -32.5 t44 -13.5q40 0 61.5 32.5t30.5 98.5h158q-18 -299 -248 -299q-43 0 -79.5 13.5t-61 33t-45.5 39t-43 33t-45 13.5q-39 0 -59.5 -32.5t-30.5 -99.5h-160zM279 510q0 -135 90.5 -226t222.5 -91t223.5 91.5t91.5 225.5t-92 230t-223 96t-222 -96t-91 -230z" />
<glyph unicode="&#xf6;" horiz-adv-x="1185" d="M55 508q0 148 72.5 272t196 195.5t268.5 71.5q146 0 270 -71.5t196 -195.5t72 -272q0 -111 -42.5 -209.5t-115 -168t-171.5 -110t-209 -40.5q-146 0 -269 68.5t-195.5 190.5t-72.5 269zM242 1309q0 59 41 100t100 41t101 -41.5t42 -99.5t-42 -100t-101 -42 q-58 0 -99.5 41.5t-41.5 100.5zM279 510q0 -135 90.5 -226t222.5 -91t223.5 91.5t91.5 225.5t-92 230t-223 96t-222 -96t-91 -230zM662 1309q0 59 41 100t100 41t100 -41t41 -100t-41.5 -100.5t-99.5 -41.5t-99.5 41.5t-41.5 100.5z" />
<glyph unicode="&#xf7;" horiz-adv-x="1206" d="M98 557v197h1012v-197h-1012zM451 240q0 63 45.5 108t107.5 45q63 0 109.5 -45t46.5 -108q0 -64 -46 -109t-110 -45q-62 0 -107.5 45t-45.5 109zM451 1075q0 63 45.5 108.5t107.5 45.5q63 0 109.5 -45.5t46.5 -108.5t-46.5 -108t-109.5 -45q-62 0 -107.5 45t-45.5 108z " />
<glyph unicode="&#xf8;" horiz-adv-x="1210" d="M88 512q0 251 136.5 391.5t379.5 140.5q180 0 301 -77l80 102h137l-133 -170q131 -140 131 -387q0 -251 -136.5 -391.5t-379.5 -140.5q-162 0 -280 65l-86 -113h-138l136 179q-148 145 -148 401zM336 512q0 -132 53 -215h2l64 86l315 420q-65 53 -166 53q-130 0 -199 -88 t-69 -256zM457 209q59 -41 147 -41q131 0 200.5 88t69.5 256q0 118 -45 195h-2l-57 -80z" />
<glyph unicode="&#xf9;" horiz-adv-x="1177" d="M104 362v662h246v-612q0 -128 50 -181t147 -53q117 0 191.5 74t74.5 221v551h246v-1024h-230l-2 135q-90 -158 -348 -158q-82 0 -148 21t-118 65.5t-80.5 120.5t-28.5 178zM307 1526h225l170 -348h-217z" />
<glyph unicode="&#xfa;" horiz-adv-x="1177" d="M104 362v662h246v-612q0 -128 50 -181t147 -53q117 0 191.5 74t74.5 221v551h246v-1024h-230l-2 135q-90 -158 -348 -158q-82 0 -148 21t-118 65.5t-80.5 120.5t-28.5 178zM446 1178l170 348h226l-178 -348h-218z" />
<glyph unicode="&#xfb;" horiz-adv-x="1177" d="M104 362v662h246v-612q0 -128 50 -181t147 -53q117 0 191.5 74t74.5 221v551h246v-1024h-230l-2 135q-90 -158 -348 -158q-82 0 -148 21t-118 65.5t-80.5 120.5t-28.5 178zM229 1163l226 348h256l225 -348h-211l-141 221l-142 -221h-213z" />
<glyph unicode="&#xfc;" horiz-adv-x="1177" d="M104 362v662h246v-612q0 -128 50 -181t147 -53q117 0 191.5 74t74.5 221v551h246v-1024h-230l-2 135q-90 -158 -348 -158q-82 0 -148 21t-118 65.5t-80.5 120.5t-28.5 178zM231 1309q0 58 41.5 99.5t100.5 41.5t101 -41.5t42 -99.5t-42 -100t-101 -42t-100.5 41.5 t-41.5 100.5zM651 1309q0 58 41.5 99.5t100.5 41.5t100 -41t41 -100t-41.5 -100.5t-99.5 -41.5q-59 0 -100.5 41.5t-41.5 100.5z" />
<glyph unicode="&#xfd;" horiz-adv-x="1138" d="M31 -358l65 180q57 -70 170 -70q62 0 103.5 29.5t70.5 107.5l41 103l-110 258l-316 774h273l213 -600l57 -182l66 196l202 586h252l-432 -1120q-70 -190 -162 -267t-243 -77q-162 0 -250 82zM461 1178l170 348h225l-178 -348h-217z" />
<glyph unicode="&#xfe;" horiz-adv-x="1259" d="M145 -430v1909h246v-615q48 83 133.5 131.5t198.5 48.5q200 0 321 -138t121 -390q0 -134 -35 -238t-96.5 -168t-141.5 -97t-175 -33q-109 0 -193 45.5t-133 124.5v-580h-246zM391 502q0 -153 70.5 -240.5t191.5 -87.5q128 0 196.5 87.5t68.5 250.5t-69 251.5t-196 88.5 q-120 0 -191 -87.5t-71 -242.5v-20z" />
<glyph unicode="&#xff;" horiz-adv-x="1138" d="M31 -358l65 180q57 -70 170 -70q62 0 103.5 29.5t70.5 107.5l41 103l-110 258l-316 774h273l213 -600l57 -182l66 196l202 586h252l-432 -1120q-70 -190 -162 -267t-243 -77q-162 0 -250 82zM246 1309q0 59 41 100t100 41t101 -41.5t42 -99.5t-42 -100t-101 -42 q-58 0 -99.5 41.5t-41.5 100.5zM666 1309q0 59 41 100t100 41t100 -41t41 -100t-41.5 -100.5t-99.5 -41.5t-99.5 41.5t-41.5 100.5z" />
<glyph unicode="&#x152;" horiz-adv-x="2152" d="M102 676q0 324 169.5 510t465.5 186q133 0 241 -51.5t183 -146.5v178h891v-207h-702v-365h540v-198h-540v-375h731v-207h-920v182q-76 -97 -186 -149.5t-244 -52.5q-291 0 -460 186.5t-169 509.5zM356 676q0 -234 100 -361t287 -127q171 0 270 128.5t99 359.5t-99 359 t-270 128q-187 0 -287 -126.5t-100 -360.5z" />
<glyph unicode="&#x153;" horiz-adv-x="1964" d="M88 512q0 250 137 391t377 141q139 0 242.5 -52.5t163.5 -151.5q57 99 156 151.5t231 52.5q229 0 356 -136t127 -349q0 -69 -10 -117h-738q13 -135 86 -204.5t195 -69.5q196 0 244 135l203 -80q-109 -243 -447 -243q-277 0 -401 206q-124 -206 -408 -206q-240 0 -377 141 t-137 391zM340 512q0 -167 70 -254.5t200 -87.5t199.5 87t69.5 255t-69.5 256t-199.5 88t-200 -88t-70 -256zM1133 596h512q-15 124 -78.5 192t-169.5 68q-114 0 -181.5 -66.5t-82.5 -193.5z" />
<glyph unicode="&#x178;" horiz-adv-x="1218" d="M4 1352h270l230 -422l106 -199l105 199l231 422h268l-481 -840v-512h-248v512zM256 1636q0 59 41.5 100.5t99.5 41.5q59 0 101.5 -42t42.5 -100t-42.5 -99.5t-101.5 -41.5t-100 41.5t-41 99.5zM676 1636q0 59 41.5 100.5t99.5 41.5t99.5 -41.5t41.5 -100.5 q0 -58 -41 -99.5t-100 -41.5t-100 41.5t-41 99.5z" />
<glyph unicode="&#x2c6;" horiz-adv-x="993" d="M143 1163l226 348h256l225 -348h-211l-141 221l-142 -221h-213z" />
<glyph unicode="&#x2dc;" horiz-adv-x="993" d="M111 1171q9 150 70 223.5t179 73.5q42 0 78.5 -13.5t61 -32t46 -37.5t43.5 -32.5t44 -13.5q40 0 61.5 32.5t30.5 98.5h158q-18 -299 -248 -299q-43 0 -79.5 13.5t-61 33t-45.5 39t-43.5 33t-45.5 13.5q-39 0 -59.5 -32.5t-30.5 -99.5h-159z" />
<glyph unicode="&#x2000;" horiz-adv-x="917" />
<glyph unicode="&#x2001;" horiz-adv-x="1835" />
<glyph unicode="&#x2002;" horiz-adv-x="917" />
<glyph unicode="&#x2003;" horiz-adv-x="1835" />
<glyph unicode="&#x2004;" horiz-adv-x="611" />
<glyph unicode="&#x2005;" horiz-adv-x="458" />
<glyph unicode="&#x2006;" horiz-adv-x="305" />
<glyph unicode="&#x2007;" horiz-adv-x="305" />
<glyph unicode="&#x2008;" horiz-adv-x="229" />
<glyph unicode="&#x2009;" horiz-adv-x="367" />
<glyph unicode="&#x200a;" horiz-adv-x="101" />
<glyph unicode="&#x2010;" horiz-adv-x="1030" d="M162 430v221h708v-221h-708z" />
<glyph unicode="&#x2011;" horiz-adv-x="1030" d="M162 430v221h708v-221h-708z" />
<glyph unicode="&#x2012;" horiz-adv-x="1030" d="M162 430v221h708v-221h-708z" />
<glyph unicode="&#x2013;" horiz-adv-x="1355" d="M150 436v209h1056v-209h-1056z" />
<glyph unicode="&#x2014;" horiz-adv-x="2039" d="M150 436v209h1740v-209h-1740z" />
<glyph unicode="&#x2018;" horiz-adv-x="528" d="M102 987q-11 147 83 262t266 146l41 -138q-149 -42 -199 -120q56 -11 94.5 -55.5t38.5 -102.5q0 -66 -47.5 -113t-112.5 -47q-70 0 -114.5 46.5t-49.5 121.5z" />
<glyph unicode="&#x2019;" horiz-adv-x="528" d="M47 991q149 42 197 121q-56 9 -93.5 53.5t-37.5 104.5q0 66 47 113t112 47q70 0 114.5 -46.5t49.5 -121.5q11 -147 -82.5 -262t-265.5 -146z" />
<glyph unicode="&#x201a;" horiz-adv-x="534" d="M39 -141q147 42 197 121q-56 9 -94 54t-38 103q0 66 47.5 113t112.5 47q70 0 114.5 -46.5t49.5 -121.5q11 -147 -82.5 -262t-265.5 -146z" />
<glyph unicode="&#x201c;" horiz-adv-x="964" d="M102 987q-11 147 83 262t266 146l41 -138q-149 -42 -199 -120q56 -11 94.5 -55.5t38.5 -102.5q0 -66 -47.5 -113t-112.5 -47q-70 0 -114.5 46.5t-49.5 121.5zM539 987q-11 147 82.5 262t265.5 146l41 -138q-150 -43 -199 -120q56 -11 94.5 -55.5t38.5 -102.5 q0 -66 -47.5 -113t-112.5 -47q-70 0 -114 46t-49 122z" />
<glyph unicode="&#x201d;" horiz-adv-x="960" d="M47 991q149 42 197 121q-56 9 -93.5 53.5t-37.5 104.5q0 66 47 113t112 47q70 0 114.5 -46.5t49.5 -121.5q11 -147 -82.5 -262t-265.5 -146zM479 991q152 43 199 121q-56 9 -94.5 54t-38.5 104q0 66 47.5 113t112.5 47q70 0 114 -46t49 -122q11 -147 -82.5 -262 t-265.5 -146z" />
<glyph unicode="&#x201e;" horiz-adv-x="966" d="M39 -141q147 42 197 121q-56 9 -94 54t-38 103q0 66 47.5 113t112.5 47q70 0 114.5 -46.5t49.5 -121.5q11 -147 -82.5 -262t-265.5 -146zM471 -141q149 42 199 121q-56 9 -94.5 54t-38.5 103q0 66 47 113t112 47q70 0 114.5 -46.5t49.5 -121.5q11 -147 -82.5 -262 t-265.5 -146z" />
<glyph unicode="&#x2022;" horiz-adv-x="849" d="M152 688q0 114 80 193.5t194 79.5t194 -79.5t80 -193.5q0 -115 -80 -194.5t-194 -79.5t-194 79.5t-80 194.5z" />
<glyph unicode="&#x2026;" horiz-adv-x="1783" d="M119 137q0 66 47.5 113t112.5 47q66 0 113.5 -47t47.5 -113t-47.5 -113t-113.5 -47q-65 0 -112.5 47t-47.5 113zM729 137q0 66 47.5 113t112.5 47q66 0 114 -47t48 -113t-48 -113t-114 -47q-65 0 -112.5 47t-47.5 113zM1341 137q0 66 47.5 113t112.5 47q66 0 114 -47 t48 -113t-48 -113t-114 -47q-65 0 -112.5 47t-47.5 113z" />
<glyph unicode="&#x202f;" horiz-adv-x="367" />
<glyph unicode="&#x2039;" horiz-adv-x="641" d="M74 543l258 401h233l-256 -401l256 -402h-233z" />
<glyph unicode="&#x203a;" horiz-adv-x="641" d="M76 141l256 402l-256 401h233l258 -401l-258 -402h-233z" />
<glyph unicode="&#x205f;" horiz-adv-x="458" />
<glyph unicode="&#x20ac;" horiz-adv-x="1404" d="M-115 442l62 146h121q-7 51 -7 90q0 37 2 55h-178l62 146h143q67 223 255.5 365t428.5 142q172 0 323 -78t249 -212l-197 -131q-66 86 -164.5 136t-210.5 50q-139 0 -255 -74.5t-175 -197.5h582l-47 -146h-576q-4 -36 -4 -57q0 -49 8 -88h537l-43 -146h-439 q63 -109 172.5 -174t239.5 -65q114 0 211.5 50t163.5 138l197 -133q-97 -136 -247.5 -214.5t-324.5 -78.5q-231 0 -415.5 132.5t-258.5 344.5h-215z" />
<glyph unicode="&#x2122;" horiz-adv-x="1677" d="M66 1223v129h585v-129h-207v-547h-170v547h-208zM762 676v676h229l123 -342l41 -131h4l41 131l125 342h225v-676h-168v297l13 192h-2l-29 -94l-141 -395h-131l-144 395l-26 94h-4l12 -192v-297h-168z" />
<glyph unicode="&#x25fc;" horiz-adv-x="1024" d="M0 0v1024h1024v-1024h-1024z" />
</font>
</defs>
</svg>
